  0
SECTION
  2
HEADER
  9
$ACADVER
  1
AC1015
  9
$ACADMAINTVER
 70
     6
  9
$DWGCODEPAGE
  3
ANSI_1252
  9
$INSBASE
 10
0.0
 20
0.0
 30
0.0
  9
$EXTMIN
 10
-0.1582371601218133
 20
-0.8705755532279652
 30
0.0
  9
$EXTMAX
 10
0.7050664139588598
 20
1.311980299882264
 30
0.0
  9
$LIMMIN
 10
0.0
 20
0.0
  9
$LIMMAX
 10
12.0
 20
9.0
  9
$ORTHOMODE
 70
     0
  9
$REGENMODE
 70
     1
  9
$FILLMODE
 70
     1
  9
$QTEXTMODE
 70
     0
  9
$MIRRTEXT
 70
     0
  9
$LTSCALE
 40
1.0
  9
$ATTMODE
 70
     1
  9
$TEXTSIZE
 40
0.2
  9
$TRACEWID
 40
0.05
  9
$TEXTSTYLE
  7
Standard
  9
$CLAYER
  8
0
  9
$CELTYPE
  6
ByLayer
  9
$CECOLOR
 62
   256
  9
$CELTSCALE
 40
1.0
  9
$DISPSILH
 70
     0
  9
$DIMSCALE
 40
1.0
  9
$DIMASZ
 40
0.1
  9
$DIMEXO
 40
0.02
  9
$DIMDLI
 40
0.38
  9
$DIMRND
 40
0.0
  9
$DIMDLE
 40
0.0
  9
$DIMEXE
 40
0.018
  9
$DIMTP
 40
0.0
  9
$DIMTM
 40
0.0
  9
$DIMTXT
 40
0.2
  9
$DIMCEN
 40
0.0
  9
$DIMTSZ
 40
0.0
  9
$DIMTOL
 70
     0
  9
$DIMLIM
 70
     0
  9
$DIMTIH
 70
     0
  9
$DIMTOH
 70
     0
  9
$DIMSE1
 70
     0
  9
$DIMSE2
 70
     0
  9
$DIMTAD
 70
     0
  9
$DIMZIN
 70
     0
  9
$DIMBLK
  1
NONE
  9
$DIMASO
 70
     1
  9
$DIMSHO
 70
     1
  9
$DIMPOST
  1

  9
$DIMAPOST
  1

  9
$DIMALT
 70
     0
  9
$DIMALTD
 70
     2
  9
$DIMALTF
 40
25.4
  9
$DIMLFAC
 40
1.0
  9
$DIMTOFL
 70
     0
  9
$DIMTVP
 40
0.0
  9
$DIMTIX
 70
     0
  9
$DIMSOXD
 70
     0
  9
$DIMSAH
 70
     0
  9
$DIMBLK1
  1

  9
$DIMBLK2
  1

  9
$DIMSTYLE
  2
S&C_cotas
  9
$DIMCLRD
 70
   256
  9
$DIMCLRE
 70
   256
  9
$DIMCLRT
 70
   256
  9
$DIMTFAC
 40
1.0
  9
$DIMGAP
 40
0.0
  9
$DIMJUST
 70
     0
  9
$DIMSD1
 70
     1
  9
$DIMSD2
 70
     1
  9
$DIMTOLJ
 70
     1
  9
$DIMTZIN
 70
     0
  9
$DIMALTZ
 70
     0
  9
$DIMALTTZ
 70
     0
  9
$DIMUPT
 70
     0
  9
$DIMDEC
 70
     0
  9
$DIMTDEC
 70
     0
  9
$DIMALTU
 70
     2
  9
$DIMALTTD
 70
     2
  9
$DIMTXSTY
  7
ARIAL
  9
$DIMAUNIT
 70
     0
  9
$DIMADEC
 70
     2
  9
$DIMALTRND
 40
0.0
  9
$DIMAZIN
 70
     0
  9
$DIMDSEP
 70
    46
  9
$DIMATFIT
 70
     3
  9
$DIMFRAC
 70
     0
  9
$DIMLDRBLK
  1
NONE
  9
$DIMLUNIT
 70
     2
  9
$DIMLWD
 70
    -2
  9
$DIMLWE
 70
    -2
  9
$DIMTMOVE
 70
     0
  9
$LUNITS
 70
     2
  9
$LUPREC
 70
     4
  9
$SKETCHINC
 40
0.1
  9
$FILLETRAD
 40
0.0
  9
$AUNITS
 70
     0
  9
$AUPREC
 70
     0
  9
$MENU
  1
.
  9
$ELEVATION
 40
0.0
  9
$PELEVATION
 40
0.0
  9
$THICKNESS
 40
0.0
  9
$LIMCHECK
 70
     0
  9
$CHAMFERA
 40
0.0
  9
$CHAMFERB
 40
0.0
  9
$CHAMFERC
 40
0.0
  9
$CHAMFERD
 40
0.0
  9
$SKPOLY
 70
     0
  9
$TDCREATE
 40
2453353.758792488
  9
$TDUCREATE
 40
2453353.717125822
  9
$TDUPDATE
 40
2456643.445239248
  9
$TDUUPDATE
 40
2456643.403572581
  9
$TDINDWG
 40
0.1307902894
  9
$TDUSRTIMER
 40
2456643.396117107
  9
$USRTIMER
 70
     1
  9
$ANGBASE
 50
0.0
  9
$ANGDIR
 70
     0
  9
$PDMODE
 70
     0
  9
$PDSIZE
 40
0.0
  9
$PLINEWID
 40
0.0
  9
$SPLFRAME
 70
     0
  9
$SPLINETYPE
 70
     6
  9
$SPLINESEGS
 70
     8
  9
$HANDSEED
  5
F17
  9
$SURFTAB1
 70
     6
  9
$SURFTAB2
 70
     6
  9
$SURFTYPE
 70
     6
  9
$SURFU
 70
     6
  9
$SURFV
 70
     6
  9
$UCSBASE
  2

  9
$UCSNAME
  2

  9
$UCSORG
 10
0.0
 20
0.0
 30
0.0
  9
$UCSXDIR
 10
1.0
 20
0.0
 30
0.0
  9
$UCSYDIR
 10
0.0
 20
1.0
 30
0.0
  9
$UCSORTHOREF
  2

  9
$UCSORTHOVIEW
 70
     0
  9
$UCSORGTOP
 10
0.0
 20
0.0
 30
0.0
  9
$UCSORGBOTTOM
 10
0.0
 20
0.0
 30
0.0
  9
$UCSORGLEFT
 10
0.0
 20
0.0
 30
0.0
  9
$UCSORGRIGHT
 10
0.0
 20
0.0
 30
0.0
  9
$UCSORGFRONT
 10
0.0
 20
0.0
 30
0.0
  9
$UCSORGBACK
 10
0.0
 20
0.0
 30
0.0
  9
$PUCSBASE
  2

  9
$PUCSNAME
  2

  9
$PUCSORG
 10
0.0
 20
0.0
 30
0.0
  9
$PUCSXDIR
 10
1.0
 20
0.0
 30
0.0
  9
$PUCSYDIR
 10
0.0
 20
1.0
 30
0.0
  9
$PUCSORTHOREF
  2

  9
$PUCSORTHOVIEW
 70
     0
  9
$PUCSORGTOP
 10
0.0
 20
0.0
 30
0.0
  9
$PUCSORGBOTTOM
 10
0.0
 20
0.0
 30
0.0
  9
$PUCSORGLEFT
 10
0.0
 20
0.0
 30
0.0
  9
$PUCSORGRIGHT
 10
0.0
 20
0.0
 30
0.0
  9
$PUCSORGFRONT
 10
0.0
 20
0.0
 30
0.0
  9
$PUCSORGBACK
 10
0.0
 20
0.0
 30
0.0
  9
$USERI1
 70
     0
  9
$USERI2
 70
     0
  9
$USERI3
 70
     0
  9
$USERI4
 70
     0
  9
$USERI5
 70
     0
  9
$USERR1
 40
0.0
  9
$USERR2
 40
0.0
  9
$USERR3
 40
0.0
  9
$USERR4
 40
0.0
  9
$USERR5
 40
0.0
  9
$WORLDVIEW
 70
     1
  9
$SHADEDGE
 70
     3
  9
$SHADEDIF
 70
    70
  9
$TILEMODE
 70
     1
  9
$MAXACTVP
 70
    64
  9
$PINSBASE
 10
0.0
 20
0.0
 30
0.0
  9
$PLIMCHECK
 70
     0
  9
$PEXTMIN
 10
0.0
 20
0.0
 30
0.0
  9
$PEXTMAX
 10
0.0
 20
0.0
 30
0.0
  9
$PLIMMIN
 10
0.0
 20
0.0
  9
$PLIMMAX
 10
0.0
 20
0.0
  9
$UNITMODE
 70
     0
  9
$VISRETAIN
 70
     1
  9
$PLINEGEN
 70
     0
  9
$PSLTSCALE
 70
     1
  9
$TREEDEPTH
 70
  3020
  9
$CMLSTYLE
  2
Standard
  9
$CMLJUST
 70
     0
  9
$CMLSCALE
 40
1.0
  9
$PROXYGRAPHICS
 70
     1
  9
$MEASUREMENT
 70
     0
  9
$CELWEIGHT
370
    -1
  9
$ENDCAPS
280
     0
  9
$JOINSTYLE
280
     0
  9
$LWDISPLAY
290
     0
  9
$INSUNITS
 70
     1
  9
$HYPERLINKBASE
  1

  9
$STYLESHEET
  1

  9
$XEDIT
290
     0
  9
$CEPSNTYPE
380
     0
  9
$PSTYLEMODE
290
     0
  9
$FINGERPRINTGUID
  2
{8BAE0D3F-6380-4E3D-B0D1-267E31F469C1}
  9
$VERSIONGUID
  2
{6F1AD05E-3764-4268-ADD0-261F181DCA83}
  9
$EXTNAMES
290
     1
  9
$PSVPSCALE
 40
0.0
  9
$OLESTARTUP
290
     0
  0
ENDSEC
  0
SECTION
  2
CLASSES
  0
CLASS
  1
ACDBDICTIONARYWDFLT
  2
AcDbDictionaryWithDefault
  3
ObjectDBX Classes
 90
        0
280
     0
281
     0
  0
CLASS
  1
ACDBPLACEHOLDER
  2
AcDbPlaceHolder
  3
ObjectDBX Classes
 90
        0
280
     0
281
     0
  0
CLASS
  1
LAYOUT
  2
AcDbLayout
  3
ObjectDBX Classes
 90
        0
280
     0
281
     0
  0
CLASS
  1
DICTIONARYVAR
  2
AcDbDictionaryVar
  3
ObjectDBX Classes
 90
        0
280
     0
281
     0
  0
CLASS
  1
TABLESTYLE
  2
AcDbTableStyle
  3
ObjectDBX Classes
 90
     4095
280
     0
281
     0
  0
CLASS
  1
SCALE
  2
AcDbScale
  3
ObjectDBX Classes
 90
     1153
280
     0
281
     0
  0
CLASS
  1
CELLSTYLEMAP
  2
AcDbCellStyleMap
  3
ObjectDBX Classes
 90
     1152
280
     0
281
     0
  0
CLASS
  1
MATERIAL
  2
AcDbMaterial
  3
ObjectDBX Classes
 90
     1153
280
     0
281
     0
  0
CLASS
  1
VISUALSTYLE
  2
AcDbVisualStyle
  3
ObjectDBX Classes
 90
     4095
280
     0
281
     0
  0
CLASS
  1
RASTERVARIABLES
  2
AcDbRasterVariables
  3
ISM
 90
        0
280
     0
281
     0
  0
CLASS
  1
SUN
  2
AcDbSun
  3
SCENEOE
 90
     1153
280
     0
281
     0
  0
CLASS
  1
DIMASSOC
  2
AcDbDimAssoc
  3
"AcDbDimAssoc|Product Desc:     AcDim ARX App For Dimension|Company:          Autodesk, Inc.|WEB Address:      www.autodesk.com"
 90
        0
280
     0
281
     0
  0
ENDSEC
  0
SECTION
  2
TABLES
  0
TABLE
  2
VPORT
  5
8
330
0
100
AcDbSymbolTable
 70
     1
  0
VPORT
  5
97
330
8
100
AcDbSymbolTableRecord
100
AcDbViewportTableRecord
  2
*Active
 70
     0
 10
0.0
 20
0.0
 11
1.0
 21
1.0
 12
0.8013506117908478
 22
0.256690396839716
 13
0.0
 23
0.0
 14
0.5
 24
0.5
 15
0.5
 25
0.5
 16
-0.01783403034830566
 26
0.0004186493583335782
 36
0.9998408733864856
 17
-0.0000000000001849
 27
0.0000000000000188
 37
-0.0000000000000018
 40
2.850294645946861
 41
2.430473372781065
 42
50.0
 43
0.0
 44
0.0
 50
0.0
 51
268.8376598566198
 71
    16
 72
  1000
 73
     1
 74
     1
 75
     0
 76
     0
 77
     0
 78
     0
281
     0
 65
     0
110
0.0
120
0.0
130
0.0
111
1.0
121
0.0
131
0.0
112
0.0
122
1.0
132
0.0
 79
     0
146
0.0
  0
ENDTAB
  0
TABLE
  2
LTYPE
  5
5
330
0
100
AcDbSymbolTable
 70
     2
  0
LTYPE
  5
14
330
5
100
AcDbSymbolTableRecord
100
AcDbLinetypeTableRecord
  2
ByBlock
 70
     0
  3

 72
    65
 73
     0
 40
0.0
  0
LTYPE
  5
15
330
5
100
AcDbSymbolTableRecord
100
AcDbLinetypeTableRecord
  2
ByLayer
 70
     0
  3

 72
    65
 73
     0
 40
0.0
  0
LTYPE
  5
16
330
5
100
AcDbSymbolTableRecord
100
AcDbLinetypeTableRecord
  2
Continuous
 70
     0
  3
Solid line
 72
    65
 73
     0
 40
0.0
  0
LTYPE
  5
E8D
330
5
100
AcDbSymbolTableRecord
100
AcDbLinetypeTableRecord
  2
CENTERX2
 70
     0
  3
Center (2x) ________  __  ________  __  _____
 72
    65
 73
     4
 40
2.032
 49
1.27
 74
     4
 75
     0
340
0
 46
1.0
 50
0.0
 44
0.0
 45
0.0
 49
-0.254
 74
     4
 75
     0
340
0
 46
1.0
 50
0.0
 44
0.0
 45
0.0
 49
0.254
 74
     4
 75
     0
340
0
 46
1.0
 50
0.0
 44
0.0
 45
0.0
 49
-0.254
 74
     4
 75
     0
340
0
 46
1.0
 50
0.0
 44
0.0
 45
0.0
  0
ENDTAB
  0
TABLE
  2
LAYER
  5
2
330
0
100
AcDbSymbolTable
 70
     4
  0
LAYER
  5
10
330
2
100
AcDbSymbolTableRecord
100
AcDbLayerTableRecord
  2
0
 70
     0
 62
     7
  6
Continuous
370
    -3
390
F
  0
LAYER
  5
C1
330
2
100
AcDbSymbolTableRecord
100
AcDbLayerTableRecord
  2
S&C_cotas
 70
     0
 62
   251
  6
Continuous
370
    -3
390
F
  0
LAYER
  5
CC
330
2
100
AcDbSymbolTableRecord
100
AcDbLayerTableRecord
  2
DEFPOINTS
 70
     0
 62
     7
  6
Continuous
290
     0
370
    -3
390
F
  0
LAYER
  5
100
330
2
100
AcDbSymbolTableRecord
100
AcDbLayerTableRecord
  2
S&C_vistas
 70
     0
 62
     1
  6
Continuous
370
    -3
390
F
  0
ENDTAB
  0
TABLE
  2
STYLE
  5
3
330
0
100
AcDbSymbolTable
 70
     3
  0
STYLE
  5
11
330
3
100
AcDbSymbolTableRecord
100
AcDbTextStyleTableRecord
  2
Standard
 70
     0
 40
0.0
 41
1.0
 50
0.0
 71
     0
 42
0.2
  3
txt
  4

  0
STYLE
  5
C2
330
3
100
AcDbSymbolTableRecord
100
AcDbTextStyleTableRecord
  2
ARIAL
 70
     0
 40
0.0
 41
1.0
 50
0.0
 71
     0
 42
15.0
  3
ARIAL.TTF
  4

1001
ACAD
1000
Arial
1071
       34
  0
STYLE
  5
B7F
330
3
100
AcDbSymbolTableRecord
100
AcDbTextStyleTableRecord
  2
SLDTEXTSTYLE0
 70
     0
 40
0.0
 41
0.605
 50
0.0
 71
     0
 42
0.2
  3
TXT
  4

  0
ENDTAB
  0
TABLE
  2
VIEW
  5
6
330
0
100
AcDbSymbolTable
 70
     0
  0
ENDTAB
  0
TABLE
  2
UCS
  5
7
330
0
100
AcDbSymbolTable
 70
     0
  0
ENDTAB
  0
TABLE
  2
APPID
  5
9
330
0
100
AcDbSymbolTable
 70
     3
  0
APPID
  5
12
330
9
100
AcDbSymbolTableRecord
100
AcDbRegAppTableRecord
  2
ACAD
 70
     0
  0
APPID
  5
E8B
330
9
100
AcDbSymbolTableRecord
100
AcDbRegAppTableRecord
  2
ACAD_DSTYLE_DIMJAG
 70
     0
  0
APPID
  5
E8C
330
9
100
AcDbSymbolTableRecord
100
AcDbRegAppTableRecord
  2
ACAD_DSTYLE_DIMTALN
 70
     0
  0
ENDTAB
  0
TABLE
  2
DIMSTYLE
  5
A
330
0
100
AcDbSymbolTable
 70
     3
100
AcDbDimStyleTable
  0
DIMSTYLE
105
27
330
A
100
AcDbSymbolTableRecord
100
AcDbDimStyleTableRecord
  2
Standard
 70
     0
178
     0
340
11
  0
DIMSTYLE
105
C5
102
{ACAD_REACTORS
330
C0F
330
C18
330
C2A
330
C33
102
}
330
A
100
AcDbSymbolTableRecord
100
AcDbDimStyleTableRecord
  2
S&C_cotas
 70
     0
 41
0.1
 42
0.02
 44
0.018
 73
     0
 74
     0
140
0.02
141
0.0
147
0.0
176
   256
177
   256
271
     0
178
   256
179
     2
271
     0
272
     0
281
     1
282
     1
340
C2
341
E8E
342
E8E
1001
ACAD_DSTYLE_DIMJAG
1070
   388
1040
1.5
1001
ACAD_DSTYLE_DIMTALN
1070
   392
1070
     0
  0
DIMSTYLE
105
5C6
330
A
100
AcDbSymbolTableRecord
100
AcDbDimStyleTableRecord
  2
Tarifa ACAD
 70
     0
 41
0.5
 42
1.0
 45
0.5
 73
     0
 74
     0
 75
     1
 76
     1
 77
     1
140
1.5
141
1.0
147
1.0
172
     1
178
     0
271
     0
272
     0
340
11
341
E91
342
E91
  0
ENDTAB
  0
TABLE
  2
BLOCK_RECORD
  5
1
330
0
100
AcDbSymbolTable
 70
     8
  0
BLOCK_RECORD
  5
1F
330
1
100
AcDbSymbolTableRecord
100
AcDbBlockTableRecord
  2
*Model_Space
340
22
  0
BLOCK_RECORD
  5
73
330
1
100
AcDbSymbolTableRecord
100
AcDbBlockTableRecord
  2
*Paper_Space
340
74
  0
BLOCK_RECORD
  5
E8E
330
1
100
AcDbSymbolTableRecord
100
AcDbBlockTableRecord
  2
_NONE
340
0
  0
BLOCK_RECORD
  5
E91
330
1
100
AcDbSymbolTableRecord
100
AcDbBlockTableRecord
  2
_DOT
340
0
  0
BLOCK_RECORD
  5
BE
330
1
100
AcDbSymbolTableRecord
100
AcDbBlockTableRecord
  2
*Paper_Space2
340
BF
  0
BLOCK_RECORD
  5
E71
330
1
100
AcDbSymbolTableRecord
100
AcDbBlockTableRecord
  2
*D3
340
0
  0
BLOCK_RECORD
  5
E79
330
1
100
AcDbSymbolTableRecord
100
AcDbBlockTableRecord
  2
*D4
340
0
  0
BLOCK_RECORD
  5
E81
330
1
100
AcDbSymbolTableRecord
100
AcDbBlockTableRecord
  2
*D5
340
0
  0
BLOCK_RECORD
  5
E89
330
1
100
AcDbSymbolTableRecord
100
AcDbBlockTableRecord
  2
*D6
340
0
  0
BLOCK_RECORD
  5
F0C
330
1
100
AcDbSymbolTableRecord
100
AcDbBlockTableRecord
  2
*D7
340
0
  0
ENDTAB
  0
ENDSEC
  0
SECTION
  2
BLOCKS
  0
BLOCK
  5
20
330
1F
100
AcDbEntity
  8
0
100
AcDbBlockBegin
  2
*Model_Space
 70
     0
 10
0.0
 20
0.0
 30
0.0
  3
*Model_Space
  1
*Model_Space
  0
ENDBLK
  5
21
330
1F
100
AcDbEntity
  8
0
100
AcDbBlockEnd
  0
BLOCK
  5
75
330
73
100
AcDbEntity
 67
     1
  8
0
100
AcDbBlockBegin
  2
*Paper_Space
 70
     0
 10
0.0
 20
0.0
 30
0.0
  3
*Paper_Space
  1
*Paper_Space
  0
ENDBLK
  5
76
330
73
100
AcDbEntity
 67
     1
  8
0
100
AcDbBlockEnd
  0
BLOCK
  5
E8F
330
E8E
100
AcDbEntity
  8
0
100
AcDbBlockBegin
  2
_NONE
 70
     0
 10
0.0
 20
0.0
 30
0.0
  3
_NONE
  1
_NONE
  0
ENDBLK
  5
E90
330
E8E
100
AcDbEntity
  8
0
100
AcDbBlockEnd
  0
BLOCK
  5
E92
330
E91
100
AcDbEntity
  8
0
100
AcDbBlockBegin
  2
_DOT
 70
     0
 10
0.0
 20
0.0
 30
0.0
  3
_DOT
  1
_DOT
  0
LWPOLYLINE
  5
BCD
330
E91
100
AcDbEntity
  8
0
  6
ByBlock
 62
     0
100
AcDbPolyline
 90
        2
 70
     1
 43
0.5
 10
-0.25
 20
0.0
 42
1.0
 10
0.25
 20
0.0
 42
1.0
  0
LINE
  5
BCE
330
E91
100
AcDbEntity
  8
0
  6
ByBlock
 62
     0
370
    -2
100
AcDbLine
 10
-0.5
 20
0.0
 30
0.0
 11
-1.0
 21
0.0
 31
0.0
  0
ENDBLK
  5
E93
330
E91
100
AcDbEntity
  8
0
100
AcDbBlockEnd
  0
BLOCK
  5
E99
330
BE
100
AcDbEntity
  8
0
100
AcDbBlockBegin
  2
*Paper_Space2
 70
     0
 10
0.0
 20
0.0
 30
0.0
  3
*Paper_Space2
  1
*Paper_Space2
  0
ENDBLK
  5
E9A
330
BE
100
AcDbEntity
  8
0
100
AcDbBlockEnd
  0
BLOCK
  5
EA3
330
E71
100
AcDbEntity
  8
0
100
AcDbBlockBegin
  2
*D3
 70
     1
 10
0.0
 20
0.0
 30
0.0
  3
*D3
  1
*D3
  0
LINE
  5
E6B
330
E71
100
AcDbEntity
  8
S&C_cotas
  6
Continuous
370
    -2
100
AcDbLine
 10
0.0094511478545987
 20
-0.6668859938035305
 30
0.0
 11
0.0083728416357349
 21
-0.870271372342268
 31
0.0
  0
LINE
  5
E6C
330
E71
100
AcDbEntity
  8
S&C_cotas
  6
Continuous
370
    -2
100
AcDbLine
 10
0.4594077853542137
 20
-0.6762577319871292
 30
0.0
 11
0.4583665172533112
 21
-0.872657143543492
 31
0.0
  0
MTEXT
  5
E6D
330
E71
100
AcDbEntity
  8
S&C_cotas
100
AcDbMText
 10
0.233465110292572
 20
-0.8534645109181789
 30
0.0
 40
0.02
 41
0.0
 71
     5
 72
     1
  1
\A1;%%C45 cm / 17.7"
  7
ARIAL
 11
0.9999859458167348
 21
-0.005301713780497159
 31
0.0
 73
     1
 44
1.0
  0
POINT
  5
E6E
330
E71
100
AcDbEntity
  8
DEFPOINTS
 62
     0
100
AcDbPoint
 10
0.0095571821302086
 20
-0.6468862748871959
 30
0.0
  0
POINT
  5
E6F
330
E71
100
AcDbEntity
  8
DEFPOINTS
 62
     0
100
AcDbPoint
 10
0.4595138196298236
 20
-0.6562580130707946
 30
0.0
  0
POINT
  5
F04
330
E71
100
AcDbEntity
  8
DEFPOINTS
 62
     0
100
AcDbPoint
 10
0.4584619481013601
 20
-0.8546573965187908
 30
0.0
  0
ENDBLK
  5
EA4
330
E71
100
AcDbEntity
  8
0
100
AcDbBlockEnd
  0
BLOCK
  5
EA5
330
E79
100
AcDbEntity
  8
0
100
AcDbBlockBegin
  2
*D4
 70
     1
 10
0.0
 20
0.0
 30
0.0
  3
*D4
  1
*D4
  0
LINE
  5
E73
330
E79
100
AcDbEntity
  8
S&C_cotas
  6
Continuous
370
    -2
100
AcDbLine
 10
-0.0135744882804046
 20
-0.0203917373902632
 30
0.0
 11
-0.0141646240059248
 21
-0.1857345437208069
 31
0.0
  0
LINE
  5
E74
330
E79
100
AcDbEntity
  8
S&C_cotas
  6
Continuous
370
    -2
100
AcDbLine
 10
0.4864223270156671
 20
-0.0221763084272558
 30
0.0
 11
0.4858321912901468
 21
-0.1875191147577995
 31
0.0
  0
MTEXT
  5
E75
330
E79
100
AcDbEntity
  8
S&C_cotas
100
AcDbMText
 10
0.2358980281994427
 20
-0.1686269438886447
 30
0.0
 40
0.02
 41
0.0
 71
     5
 72
     1
  1
\A1;50 cm / 19.7"
  7
ARIAL
 11
0.9999936305921432
 21
-0.003569142073985176
 31
0.0
 73
     1
 44
1.0
  0
POINT
  5
E76
330
E79
100
AcDbEntity
  8
DEFPOINTS
 62
     0
100
AcDbPoint
 10
-0.0135031054389249
 20
-0.0003918647784204
 30
0.0
  0
POINT
  5
E77
330
E79
100
AcDbEntity
  8
DEFPOINTS
 62
     0
100
AcDbPoint
 10
0.4864937098571468
 20
-0.0021764358154129
 30
0.0
  0
POINT
  5
F05
330
E79
100
AcDbEntity
  8
DEFPOINTS
 62
     0
100
AcDbPoint
 10
0.4858964358474785
 20
-0.169519229407141
 30
0.0
  0
ENDBLK
  5
EA6
330
E79
100
AcDbEntity
  8
0
100
AcDbBlockEnd
  0
BLOCK
  5
EA7
330
E81
100
AcDbEntity
  8
0
100
AcDbBlockBegin
  2
*D5
 70
     1
 10
0.0
 20
0.0
 30
0.0
  3
*D5
  1
*D5
  0
LINE
  5
E7B
330
E81
100
AcDbEntity
  8
S&C_cotas
  6
Continuous
370
    -2
100
AcDbLine
 10
0.4707369301467364
 20
1.186714497357384
 30
0.0
 11
0.6958019105658313
 21
1.185911203349883
 31
0.0
  0
LINE
  5
E7C
330
E81
100
AcDbEntity
  8
S&C_cotas
  6
Continuous
370
    -2
100
AcDbLine
 10
0.4848802850375756
 20
0.9466749651079394
 30
0.0
 11
0.6949453609977737
 21
0.9459252082315477
 31
0.0
  0
MTEXT
  5
E7D
330
E81
100
AcDbEntity
  8
S&C_cotas
100
AcDbMText
 10
0.6773737504311439
 20
1.065982450348047
 30
0.0
 40
0.02
 41
0.0
 71
     5
 72
     1
  1
\A1;24 cm / 9.4"
  7
ARIAL
 11
0.003569142073985114
 21
0.9999936305921432
 31
0.0
 73
     1
 44
1.0
  0
POINT
  5
E7E
330
E81
100
AcDbEntity
  8
DEFPOINTS
 62
     0
100
AcDbPoint
 10
0.4507370575348935
 20
1.186785880198864
 30
0.0
  0
POINT
  5
E7F
330
E81
100
AcDbEntity
  8
DEFPOINTS
 62
     0
100
AcDbPoint
 10
0.4648804124257327
 20
0.946746347949419
 30
0.0
  0
POINT
  5
F06
330
E81
100
AcDbEntity
  8
DEFPOINTS
 62
     0
100
AcDbPoint
 10
0.6769454756471152
 20
0.9459894527888794
 30
0.0
  0
ENDBLK
  5
EA8
330
E81
100
AcDbEntity
  8
0
100
AcDbBlockEnd
  0
BLOCK
  5
EA9
330
E89
100
AcDbEntity
  8
0
100
AcDbBlockBegin
  2
*D6
 70
     1
 10
0.0
 20
0.0
 30
0.0
  3
*D6
  1
*D6
  0
LINE
  5
E83
330
E89
100
AcDbEntity
  8
S&C_cotas
  6
Continuous
370
    -2
100
AcDbLine
 10
0.0308111155276854
 20
1.208284792481781
 30
0.0
 11
0.0311792838733022
 21
1.311437312883255
 31
0.0
  0
LINE
  5
E84
330
E89
100
AcDbEntity
  8
S&C_cotas
  6
Continuous
370
    -2
100
AcDbLine
 10
0.4508084403763732
 20
1.206785752810707
 30
0.0
 11
0.4511766087219901
 21
1.309938273212181
 31
0.0
  0
MTEXT
  5
E85
330
E89
100
AcDbEntity
  8
S&C_cotas
100
AcDbMText
 10
0.2411137017403144
 20
1.292687907697059
 30
0.0
 40
0.02
 41
0.0
 71
     5
 72
     1
  1
\A1;Ø42 cm / 16.5"
  7
ARIAL
 11
0.9999936305921432
 21
-0.003569142073985048
 31
0.0
 73
     1
 44
1.0
  0
POINT
  5
E86
330
E89
100
AcDbEntity
  8
DEFPOINTS
 62
     0
100
AcDbPoint
 10
0.0307397326862057
 20
1.188284919869938
 30
0.0
  0
POINT
  5
E87
330
E89
100
AcDbEntity
  8
DEFPOINTS
 62
     0
100
AcDbPoint
 10
0.4507370575348935
 20
1.186785880198864
 30
0.0
  0
POINT
  5
F07
330
E89
100
AcDbEntity
  8
DEFPOINTS
 62
     0
100
AcDbPoint
 10
0.4511123641646583
 20
1.291938387861522
 30
0.0
  0
ENDBLK
  5
EAA
330
E89
100
AcDbEntity
  8
0
100
AcDbBlockEnd
  0
BLOCK
  5
F0D
330
F0C
100
AcDbEntity
  8
0
100
AcDbBlockBegin
  2
*D7
 70
     1
 10
0.0
 20
0.0
 30
0.0
  3
*D7
  1
*D7
  0
MTEXT
  5
F0F
330
F0C
100
AcDbEntity
  8
0
100
AcDbMText
 10
0.8794859720298548
 20
-0.4012514899037521
 30
0.0
 40
0.2
 41
0.0
 71
     5
 72
     1
  1
\A1;75.61%%d
  7
ARIAL
 11
0.07839283690427969
 21
-0.9969225462001043
 31
0.0
 73
     1
 44
1.0
  0
POINT
  5
F10
330
F0C
100
AcDbEntity
  8
DEFPOINTS
 62
     0
100
AcDbPoint
 10
0.5126777916419925
 20
0.4751818680296769
 30
0.0
  0
POINT
  5
F11
330
F0C
100
AcDbEntity
  8
DEFPOINTS
 62
     0
100
AcDbPoint
 10
0.4864937098571468
 20
-0.0021764358154129
 30
0.0
  0
POINT
  5
F12
330
F0C
100
AcDbEntity
  8
DEFPOINTS
 62
     0
100
AcDbPoint
 10
0.2618106959960918
 20
0.8516309280299516
 30
0.0
  0
POINT
  5
F13
330
F0C
100
AcDbEntity
  8
DEFPOINTS
 62
     0
100
AcDbPoint
 10
0.2587947709435748
 20
0.0066363101796771
 30
0.0
  0
POINT
  5
F14
330
F0C
100
AcDbEntity
  8
DEFPOINTS
 62
     0
100
AcDbPoint
 10
1.162907452738453
 20
0.168756541078482
 30
0.0
  0
ENDBLK
  5
F0E
330
F0C
100
AcDbEntity
  8
0
100
AcDbBlockEnd
  0
ENDSEC
  0
SECTION
  2
ENTITIES
  0
LINE
  5
C0C
330
1F
100
AcDbEntity
  8
S&C_cotas
  6
Continuous
100
AcDbLine
 10
-0.058556622741688
 20
0.7928134195339567
 30
0.0
 11
-0.0595051422896259
 21
0.5270594969474689
 31
0.0
  0
SOLID
  5
C0D
330
1F
100
AcDbEntity
  8
S&C_cotas
  6
Continuous
100
AcDbTrace
 10
-0.0595051422896259
 20
0.5270594969474689
 30
0.0
 11
-0.0518445786668627
 21
0.5720324417585196
 31
0.0
 12
-0.0668444831257311
 22
0.5720859788896292
 32
0.0
 13
-0.0668444831257311
 23
0.5720859788896292
 33
0.0
  0
SOLID
  5
C0E
330
1F
100
AcDbEntity
  8
S&C_cotas
  6
Continuous
100
AcDbTrace
 10
-0.058556622741688
 20
0.7928134195339567
 30
0.0
 11
-0.0662171863644515
 21
0.7478404747229058
 31
0.0
 12
-0.0512172819055831
 22
0.7477869375917959
 32
0.0
 13
-0.0512172819055831
 23
0.7477869375917959
 33
0.0
  0
DIMENSION
  5
C0F
330
1F
100
AcDbEntity
  8
S&C_cotas
  6
Continuous
100
AcDbDimension
  2
*D3
 10
0.4584619481013601
 20
-0.8546573965187908
 30
0.0
 11
0.233465110292572
 21
-0.8534645109181789
 31
0.0
 70
    32
  1
%%C45 cm / 17.7"
 71
    84
 72
   116
 41
559.3481686752649
 42
0.4500000000000454
 52
-270.0
  3
S&C_cotas
100
AcDbAlignedDimension
 13
0.0095571821302086
 23
-0.6468862748871959
 33
0.0
 14
0.4595138196298236
 24
-0.6562580130707946
 34
0.0
 50
179.696232753123
100
AcDbRotatedDimension
  0
DIMENSION
  5
C18
330
1F
100
AcDbEntity
  8
S&C_cotas
  6
Continuous
 62
   252
100
AcDbDimension
  2
*D4
 10
0.4858964358474785
 20
-0.169519229407141
 30
0.0
 11
0.2358980281994427
 21
-0.1686269438886447
 31
0.0
 70
    32
  1
50 cm / 19.7"
 71
   176
 72
   157
 41
559.1433096484345
 42
0.5
  3
S&C_cotas
100
AcDbAlignedDimension
 13
-0.0135031054389249
 23
-0.0003918647784204
 33
0.0
 14
0.4864937098571468
 24
-0.0021764358154129
 34
0.0
 50
-0.2044972114974863
100
AcDbRotatedDimension
  0
DIMENSION
  5
C2A
330
1F
100
AcDbEntity
  8
S&C_cotas
  6
Continuous
100
AcDbDimension
  2
*D5
 10
0.6769454756471152
 20
0.9459894527888794
 30
0.0
 11
0.6773737504311439
 21
1.065982450348047
 31
0.0
 70
    32
  1
24 cm / 9.4"
 71
    19
 72
    33
 41
560.1709224613465
 42
0.2399875236967543
  3
S&C_cotas
100
AcDbAlignedDimension
 13
0.4507370575348935
 23
1.186785880198864
 33
0.0
 14
0.4648804124257327
 24
0.946746347949419
 34
0.0
 50
89.79550278850253
100
AcDbRotatedDimension
  0
DIMENSION
  5
C33
330
1F
100
AcDbEntity
  8
S&C_cotas
  6
Continuous
100
AcDbDimension
  2
*D6
 10
0.4511123641646583
 20
1.291938387861522
 30
0.0
 11
0.2411137017403144
 21
1.292687907697059
 31
0.0
 70
    32
  1
Ø42 cm / 16.5"
 71
   182
 72
    50
 41
1.587443445436686E+99
 42
0.4199999999999877
  3
S&C_cotas
100
AcDbAlignedDimension
 13
0.0307397326862057
 23
1.188284919869938
 33
0.0
 14
0.4507370575348935
 24
1.186785880198864
 34
0.0
 50
-0.2044972114974863
100
AcDbRotatedDimension
  0
ARC
  5
C44
330
1F
100
AcDbEntity
  8
S&C_vistas
  6
Continuous
 62
   255
370
     5
100
AcDbCircle
 10
0.2346454473821923
 20
-0.5195720206291302
 30
0.0
 40
0.0300000000000491
100
AcDbArc
 50
91.70571596027294
 51
177.885289617052
  0
ARC
  5
C45
330
1F
100
AcDbEntity
  8
S&C_vistas
  6
Continuous
 62
   255
370
     5
100
AcDbCircle
 10
0.2346454473821923
 20
-0.5195720206291302
 30
0.0
 40
0.0299999999999866
100
AcDbArc
 50
181.7057159599503
 51
267.8852896167302
  0
ARC
  5
C46
330
1F
100
AcDbEntity
  8
S&C_vistas
  6
Continuous
 62
   255
370
     5
100
AcDbCircle
 10
0.2346454473821923
 20
-0.5195720206291302
 30
0.0
 40
0.0300000000000491
100
AcDbArc
 50
271.7057159602726
 51
357.8852896170526
  0
ARC
  5
C47
330
1F
100
AcDbEntity
  8
S&C_vistas
  6
Continuous
 62
   255
370
     5
100
AcDbCircle
 10
0.2346454473821923
 20
-0.5195720206291302
 30
0.0
 40
0.0299999999999866
100
AcDbArc
 50
1.705715959950984
 51
87.88528961673072
  0
CIRCLE
  5
C49
330
1F
100
AcDbEntity
  8
S&C_vistas
  6
Continuous
 62
   255
370
     5
100
AcDbCircle
 10
-0.2346454473821923
 20
-0.5195720206291302
 30
0.0
 40
0.0200000000000102
210
0.0
220
0.0
230
-1.0
  0
CIRCLE
  5
C55
330
1F
100
AcDbEntity
  8
S&C_vistas
  6
Continuous
 62
   255
370
     5
100
AcDbCircle
 10
-0.2346454473821923
 20
-0.5195720206291302
 30
0.0
 40
0.2249999999999943
210
0.0
220
0.0
230
-1.0
  0
LINE
  5
C58
330
1F
100
AcDbEntity
  8
S&C_vistas
  6
Continuous
 62
   255
370
     5
100
AcDbLine
 10
0.2270793214876348
 20
-0.5380856301893175
 30
0.0
 11
0.2271187265872033
 21
-0.5270452042929528
 31
0.0
  0
LINE
  5
C59
330
1F
100
AcDbEntity
  8
S&C_vistas
  6
Continuous
 62
   255
370
     5
100
AcDbLine
 10
0.2271187265872033
 20
-0.5270452042929528
 30
0.0
 11
0.216078300690867
 21
-0.5270057991933843
 31
0.0
  0
LINE
  5
C5A
330
1F
100
AcDbEntity
  8
S&C_vistas
  6
Continuous
 62
   255
370
     5
100
AcDbLine
 10
0.2422115732767498
 20
-0.501058411068943
 30
0.0
 11
0.2421721681771815
 21
-0.5120988369651939
 31
0.0
  0
LINE
  5
C5B
330
1F
100
AcDbEntity
  8
S&C_vistas
  6
Continuous
 62
   255
370
     5
100
AcDbLine
 10
0.2421721681771815
 20
-0.5120988369651939
 30
0.0
 11
0.2532125940734896
 21
-0.5121382420647622
 31
0.0
  0
LINE
  5
C5C
330
1F
100
AcDbEntity
  8
S&C_vistas
  6
Continuous
 62
   255
370
     5
100
AcDbLine
 10
0.2531590569423798
 20
-0.5271381465236307
 30
0.0
 11
0.2421186310460718
 21
-0.5270987414240622
 31
0.0
  0
LINE
  5
C5D
330
1F
100
AcDbEntity
  8
S&C_vistas
  6
Continuous
 62
   255
370
     5
100
AcDbLine
 10
0.2421186310460718
 20
-0.5270987414240622
 30
0.0
 11
0.2420792259465033
 21
-0.5381391673204271
 31
0.0
  0
LINE
  5
C5E
330
1F
100
AcDbEntity
  8
S&C_vistas
  6
Continuous
 62
   255
370
     5
100
AcDbLine
 10
0.2161318378219767
 20
-0.5120058947345156
 30
0.0
 11
0.2271722637183131
 21
-0.5120452998340841
 31
0.0
  0
LINE
  5
C5F
330
1F
100
AcDbEntity
  8
S&C_vistas
  6
Continuous
 62
   255
370
     5
100
AcDbLine
 10
0.2271722637183131
 20
-0.5120452998340841
 30
0.0
 11
0.2272116688178814
 21
-0.5010048739378331
 31
0.0
  0
LINE
  5
C60
330
1F
100
AcDbEntity
  8
S&C_vistas
  6
Continuous
 62
   255
370
     5
100
AcDbLine
 10
0.2532125940734896
 20
-0.5121382420647622
 30
0.0
 11
0.2421721681771815
 21
-0.5120988369651939
 31
0.0
  0
LINE
  5
C61
330
1F
100
AcDbEntity
  8
S&C_vistas
  6
Continuous
 62
   255
370
     5
100
AcDbLine
 10
0.2421721681771815
 20
-0.5120988369651939
 30
0.0
 11
0.2422115732767498
 21
-0.501058411068943
 31
0.0
  0
LINE
  5
C62
330
1F
100
AcDbEntity
  8
S&C_vistas
  6
Continuous
 62
   255
370
     5
100
AcDbLine
 10
0.2272116688178814
 20
-0.5010048739378331
 30
0.0
 11
0.2271722637183131
 21
-0.5120452998340841
 31
0.0
  0
LINE
  5
C63
330
1F
100
AcDbEntity
  8
S&C_vistas
  6
Continuous
 62
   255
370
     5
100
AcDbLine
 10
0.2271722637183131
 20
-0.5120452998340841
 30
0.0
 11
0.2161318378219767
 21
-0.5120058947345156
 31
0.0
  0
LINE
  5
C64
330
1F
100
AcDbEntity
  8
S&C_vistas
  6
Continuous
 62
   255
370
     5
100
AcDbLine
 10
0.216078300690867
 20
-0.5270057991933843
 30
0.0
 11
0.2271187265872033
 21
-0.5270452042929528
 31
0.0
  0
LINE
  5
C65
330
1F
100
AcDbEntity
  8
S&C_vistas
  6
Continuous
 62
   255
370
     5
100
AcDbLine
 10
0.2271187265872033
 20
-0.5270452042929528
 30
0.0
 11
0.2270793214876348
 21
-0.5380856301893175
 31
0.0
  0
LINE
  5
C66
330
1F
100
AcDbEntity
  8
S&C_vistas
  6
Continuous
 62
   255
370
     5
100
AcDbLine
 10
0.2420792259465033
 20
-0.5381391673204271
 30
0.0
 11
0.2421186310460718
 21
-0.5270987414240622
 31
0.0
  0
LINE
  5
C67
330
1F
100
AcDbEntity
  8
S&C_vistas
  6
Continuous
 62
   255
370
     5
100
AcDbLine
 10
0.2421186310460718
 20
-0.5270987414240622
 30
0.0
 11
0.2531590569423798
 21
-0.5271381465236307
 31
0.0
  0
ARC
  5
C68
330
1F
100
AcDbEntity
  8
S&C_vistas
  6
Continuous
 62
   255
370
     5
100
AcDbCircle
 10
0.2355109643351339
 20
-0.2770735652104718
 30
0.0
 40
0.0074999999999932
100
AcDbArc
 50
359.7955027885027
 51
179.7955027885019
  0
LINE
  5
C69
330
1F
100
AcDbEntity
  8
S&C_vistas
  6
Continuous
 62
   255
370
     5
100
AcDbLine
 10
0.2251977536995964
 20
-0.7446582626376176
 30
0.0
 11
0.2251348474465452
 21
-0.7622831851180962
 31
0.0
  0
LINE
  5
C6A
330
1F
100
AcDbEntity
  8
S&C_vistas
  6
Continuous
 62
   255
370
     5
100
AcDbLine
 10
0.2270418209441621
 20
-0.5485924421455209
 30
0.0
 11
0.2264110964900599
 21
-0.7253073006988302
 31
0.0
  0
LINE
  5
C6B
330
1F
100
AcDbEntity
  8
S&C_vistas
  6
Continuous
 62
   255
370
     5
100
AcDbLine
 10
0.2278798938154565
 20
-0.3137832034282068
 30
0.0
 11
0.2272491693613542
 21
-0.490498061981516
 31
0.0
  0
LINE
  5
C6C
330
1F
100
AcDbEntity
  8
S&C_vistas
  6
Continuous
 62
   255
370
     5
100
AcDbLine
 10
0.2280110121056996
 20
-0.2770467966449168
 30
0.0
 11
0.2279481058526482
 21
-0.2946717191253955
 31
0.0
  0
ARC
  5
C6D
330
1F
100
AcDbEntity
  8
S&C_vistas
  6
Continuous
 62
   255
370
     5
100
AcDbCircle
 10
0.2326347996759792
 20
-0.7623099536836512
 30
0.0
 40
0.0074999999999932
100
AcDbArc
 50
179.7955027885027
 51
359.7955027885027
  0
LINE
  5
C6E
330
1F
100
AcDbEntity
  8
S&C_vistas
  6
Continuous
 62
   255
370
     5
100
AcDbLine
 10
0.2429480103115167
 20
-0.2947252562565054
 30
0.0
 11
0.2430109165645682
 21
-0.2771003337760266
 31
0.0
  0
LINE
  5
C6F
330
1F
100
AcDbEntity
  8
S&C_vistas
  6
Continuous
 62
   255
370
     5
100
AcDbLine
 10
0.2422490738202228
 20
-0.4905515991126256
 30
0.0
 11
0.242879798274325
 21
-0.3138367405593164
 31
0.0
  0
LINE
  5
C70
330
1F
100
AcDbEntity
  8
S&C_vistas
  6
Continuous
 62
   255
370
     5
100
AcDbLine
 10
0.2414110009489284
 20
-0.7253608378299398
 30
0.0
 11
0.2420417254030307
 21
-0.5486459792766305
 31
0.0
  0
LINE
  5
C71
330
1F
100
AcDbEntity
  8
S&C_vistas
  6
Continuous
 62
   255
370
     5
100
AcDbLine
 10
0.2401347519054135
 20
-0.7623367222492059
 30
0.0
 11
0.2401976581584648
 21
-0.7447117997687273
 31
0.0
  0
ARC
  5
C72
330
1F
100
AcDbEntity
  8
S&C_vistas
  6
Continuous
 62
   255
370
     5
100
AcDbCircle
 10
-0.0078530080364092
 20
-0.5187065036761886
 30
0.0
 40
0.00750000000005
100
AcDbArc
 50
89.7955027885026
 51
269.7955027885023
  0
LINE
  5
C73
330
1F
100
AcDbEntity
  8
S&C_vistas
  6
Continuous
 62
   255
370
     5
100
AcDbLine
 10
0.0097986830096244
 20
-0.511269457699749
 30
0.0
 11
-0.0078262394708542
 21
-0.5112065514466976
 31
0.0
  0
LINE
  5
C74
330
1F
100
AcDbEntity
  8
S&C_vistas
  6
Continuous
 62
   255
370
     5
100
AcDbLine
 10
0.2056250258657734
 20
-0.5119683941910431
 30
0.0
 11
0.0289101673124073
 21
-0.5113376697369406
 31
0.0
  0
LINE
  5
C75
330
1F
100
AcDbEntity
  8
S&C_vistas
  6
Continuous
 62
   255
370
     5
100
AcDbLine
 10
0.0288566301812975
 20
-0.5263375741958092
 30
0.0
 11
0.2055714887346636
 21
-0.5269682986499115
 31
0.0
  0
LINE
  5
C76
330
1F
100
AcDbEntity
  8
S&C_vistas
  6
Continuous
 62
   255
370
     5
100
AcDbLine
 10
-0.007879776601964
 20
-0.5262064559055661
 30
0.0
 11
0.0097451458785147
 21
-0.5262693621586175
 31
0.0
  0
LINE
  5
C77
330
1F
100
AcDbEntity
  8
S&C_vistas
  6
Continuous
 62
   255
370
     5
100
AcDbLine
 10
0.4594922117547321
 20
-0.5278745835583973
 30
0.0
 11
0.4771171342352107
 21
-0.5279374898114487
 31
0.0
  0
LINE
  5
C78
330
1F
100
AcDbEntity
  8
S&C_vistas
  6
Continuous
 62
   255
370
     5
100
AcDbLine
 10
0.2636658688986115
 20
-0.5271756470671035
 30
0.0
 11
0.4403807274519493
 21
-0.5278063715212057
 31
0.0
  0
ARC
  5
C79
330
1F
100
AcDbEntity
  8
S&C_vistas
  6
Continuous
 62
   255
370
     5
100
AcDbCircle
 10
0.4771439028007655
 20
-0.5204375375820715
 30
0.0
 40
0.00750000000005
100
AcDbArc
 50
269.7955027885039
 51
89.79550278850344
  0
LINE
  5
C7A
330
1F
100
AcDbEntity
  8
S&C_vistas
  6
Continuous
 62
   255
370
     5
100
AcDbLine
 10
0.440434264583059
 20
-0.5128064670623373
 30
0.0
 11
0.2637194060297213
 21
-0.5121757426082351
 31
0.0
  0
LINE
  5
C7B
330
1F
100
AcDbEntity
  8
S&C_vistas
  6
Continuous
 62
   255
370
     5
100
AcDbLine
 10
0.4771706713663204
 20
-0.5129375853525803
 30
0.0
 11
0.4595457488858419
 21
-0.512874679099529
 31
0.0
  0
LINE
  5
C95
330
1F
100
AcDbEntity
  8
S&C_vistas
  6
Continuous
 62
   255
370
     5
100
AcDbLine
 10
0.4507370575348935
 20
1.186785880198864
 30
0.0
 11
0.0307397326862057
 21
1.188284919869938
 31
0.0
  0
LINE
  5
C96
330
1F
100
AcDbEntity
  8
S&C_vistas
  6
Continuous
 62
   255
370
     5
100
AcDbLine
 10
0.4648804124257327
 20
0.946746347949419
 30
0.0
 11
0.0148832786592797
 21
0.9483524618827127
 31
0.0
  0
LINE
  5
C97
330
1F
100
AcDbEntity
  8
S&C_vistas
  6
Continuous
 62
   255
370
     5
100
AcDbLine
 10
0.4646807586921283
 20
0.9467345841637774
 30
0.0
 11
0.0150828433334864
 21
0.948339273220779
 31
0.0
  0
LINE
  5
C98
330
1F
100
AcDbEntity
  8
S&C_vistas
  6
Continuous
 62
   255
370
     5
100
AcDbLine
 10
0.2321094701299799
 20
0.450980237772136
 30
0.0
 11
0.2429695976931182
 21
0.4509414761870332
 31
0.0
  0
LINE
  5
C99
330
1F
100
AcDbEntity
  8
S&C_vistas
  6
Continuous
 62
   255
370
     5
100
AcDbLine
 10
0.2429695976931182
 20
0.4509414761870332
 30
0.0
 11
0.244109393697086
 21
0.4509374080672482
 31
0.0
  0
LINE
  5
C9A
330
1F
100
AcDbEntity
  8
S&C_vistas
  6
Continuous
 62
   255
370
     5
100
AcDbLine
 10
0.2142529397478312
 20
0.0067952873160404
 30
0.0
 11
0.2290239031162404
 21
0.0067425673134137
 31
0.0
  0
LINE
  5
C9B
330
1F
100
AcDbEntity
  8
S&C_vistas
  6
Continuous
 62
   255
370
     5
100
AcDbLine
 10
0.2304122993830489
 20
0.3957400896137673
 30
0.0
 11
0.2293415567608532
 21
0.0957420004360561
 31
0.0
  0
LINE
  5
C9C
330
1F
100
AcDbEntity
  8
S&C_vistas
  6
Continuous
 62
   255
370
     5
100
AcDbLine
 10
0.2172688648003483
 20
0.8517899051663153
 30
0.0
 11
0.2320398281687858
 21
0.8517371851636883
 31
0.0
  0
LINE
  5
C9D
330
1F
100
AcDbEntity
  8
S&C_vistas
  6
Continuous
 62
   255
370
     5
100
AcDbLine
 10
0.2172688648003483
 20
0.8517899051663153
 30
0.0
 11
0.2142529397478312
 21
0.0067952873160404
 31
0.0
  0
LINE
  5
C9E
330
1F
100
AcDbEntity
  8
S&C_vistas
  6
Continuous
 62
   255
370
     5
100
AcDbLine
 10
0.2440238075751373
 20
0.0066890301823039
 30
0.0
 11
0.2587947709435748
 21
0.0066363101796771
 31
0.0
  0
LINE
  5
C9F
102
{ACAD_REACTORS
330
F0B
102
}
330
1F
100
AcDbEntity
  8
S&C_vistas
  6
Continuous
 62
   255
370
     5
100
AcDbLine
 10
0.2618106959960918
 20
0.8516309280299516
 30
0.0
 11
0.2587947709435748
 21
0.0066363101796771
 31
0.0
  0
LINE
  5
CA0
330
1F
100
AcDbEntity
  8
S&C_vistas
  6
Continuous
 62
   255
370
     5
100
AcDbLine
 10
0.2470397326276542
 20
0.8516836480325783
 30
0.0
 11
0.2618106959960918
 21
0.8516309280299516
 31
0.0
  0
LINE
  5
CA4
330
1F
100
AcDbEntity
  8
S&C_vistas
  6
Continuous
 62
   255
370
     5
100
AcDbLine
 10
0.2172688648003483
 20
0.8517899051663153
 30
0.0
 11
0.2170190248551695
 21
0.7817903510249286
 31
0.0
  0
LINE
  5
CA7
330
1F
100
AcDbEntity
  8
S&C_vistas
  6
Continuous
 62
   255
370
     5
100
AcDbLine
 10
0.2618106959960918
 20
0.8516309280299516
 30
0.0
 11
0.2615608560509131
 21
0.7816313738885654
 31
0.0
  0
LINE
  5
CA8
330
1F
100
AcDbEntity
  8
S&C_vistas
  6
Continuous
 62
   255
370
     5
100
AcDbLine
 10
0.2320398281687858
 20
0.8517371851636883
 30
0.0
 11
0.2470397326276542
 21
0.8516836480325783
 31
0.0
  0
LINE
  5
CA9
330
1F
100
AcDbEntity
  8
S&C_vistas
  6
Continuous
 62
   255
370
     5
100
AcDbLine
 10
0.2317899882236071
 20
0.7817376310223018
 30
0.0
 11
0.2467898926824756
 21
0.7816840938911922
 31
0.0
  0
LINE
  5
CAA
330
1F
100
AcDbEntity
  8
S&C_vistas
  6
Continuous
 62
   255
370
     5
100
AcDbLine
 10
0.2467898926824756
 20
0.7816840938911922
 30
0.0
 11
0.2467898926824756
 21
0.7816840938911922
 31
0.0
  0
LINE
  5
CAB
330
1F
100
AcDbEntity
  8
S&C_vistas
  6
Continuous
 62
   255
370
     5
100
AcDbLine
 10
0.2317899882236071
 20
0.7817376310223018
 30
0.0
 11
0.2317899882236071
 21
0.7817376310223018
 31
0.0
  0
LINE
  5
CB0
330
1F
100
AcDbEntity
  8
S&C_vistas
  6
Continuous
 62
   255
370
     5
100
AcDbLine
 10
0.260365193456128
 20
0.446633507640161
 30
0.0
 11
0.2601831672103551
 21
0.3956338324800307
 31
0.0
  0
LINE
  5
CB1
330
1F
100
AcDbEntity
  8
S&C_vistas
  6
Continuous
 62
   255
370
     5
100
AcDbLine
 10
0.2158233622603845
 20
0.4467924847765242
 30
0.0
 11
0.2156413360146114
 21
0.3957928096163941
 31
0.0
  0
LINE
  5
CB2
330
1F
100
AcDbEntity
  8
S&C_vistas
  6
Continuous
 62
   255
370
     5
100
AcDbLine
 10
0.2304122993830489
 20
0.3957400896137673
 30
0.0
 11
0.2454122038419175
 21
0.3956865524826575
 31
0.0
  0
LINE
  5
CB4
330
1F
100
AcDbEntity
  8
S&C_vistas
  6
Continuous
 62
   255
370
     5
100
AcDbLine
 10
0.230594325628822
 20
0.4467397647738974
 30
0.0
 11
0.2455942300876905
 21
0.4466862276427879
 31
0.0
  0
LINE
  5
CB8
330
1F
100
AcDbEntity
  8
S&C_vistas
  6
Continuous
 62
   255
370
     5
100
AcDbLine
 10
0.2591124245881593
 20
0.0956357433023196
 30
0.0
 11
0.2589696589052
 21
0.0556359980786703
 31
0.0
  0
LINE
  5
CB9
330
1F
100
AcDbEntity
  8
S&C_vistas
  6
Continuous
 62
   255
370
     5
100
AcDbLine
 10
0.2145705933924156
 20
0.0957947204386829
 30
0.0
 11
0.2144278277094564
 21
0.0557949752150336
 31
0.0
  0
LINE
  5
CBA
330
1F
100
AcDbEntity
  8
S&C_vistas
  6
Continuous
 62
   255
370
     5
100
AcDbLine
 10
0.2293415567608532
 20
0.0957420004360561
 30
0.0
 11
0.2443414612197217
 21
0.0956884633049465
 31
0.0
  0
LINE
  5
CBD
330
1F
100
AcDbEntity
  8
S&C_vistas
  6
Continuous
 62
   255
370
     5
100
AcDbLine
 10
0.2440238075751373
 20
0.0066890301823039
 30
0.0
 11
0.2439952544385451
 21
-0.0013109188624715
 31
0.0
  0
LINE
  5
CBE
330
1F
100
AcDbEntity
  8
S&C_vistas
  6
Continuous
 62
   255
370
     5
100
AcDbLine
 10
0.2289953499796768
 20
-0.0012573817313618
 30
0.0
 11
0.2290239031162687
 21
0.0067425673134136
 31
0.0
  0
LINE
  5
CBF
330
1F
100
AcDbEntity
  8
S&C_vistas
  6
Continuous
 62
   255
370
     5
100
AcDbLine
 10
0.2289953499796768
 20
-0.0012573817313618
 30
0.0
 11
0.2439952544385451
 21
-0.0013109188624715
 31
0.0
  0
LINE
  5
CC0
330
1F
100
AcDbEntity
  8
S&C_vistas
  6
Continuous
 62
   255
370
     5
100
AcDbLine
 10
0.2291987910778939
 20
0.0557422552124068
 30
0.0
 11
0.2441986955367625
 21
0.0556887180812971
 31
0.0
  0
LINE
  5
CC1
330
1F
100
AcDbEntity
  8
S&C_vistas
  6
Continuous
 62
   255
370
     5
100
AcDbLine
 10
0.2441986955367625
 20
0.0556887180812971
 30
0.0
 11
0.2439952544385451
 21
-0.0013109188624715
 31
0.0
  0
LINE
  5
CC2
330
1F
100
AcDbEntity
  8
S&C_vistas
  6
Continuous
 62
   255
370
     5
100
AcDbLine
 10
0.2291987910778939
 20
0.0557422552124068
 30
0.0
 11
0.2289953499796768
 21
-0.0012573817313618
 31
0.0
  0
LINE
  5
CC3
330
1F
100
AcDbEntity
  8
S&C_vistas
  6
Continuous
 62
   255
370
     5
100
AcDbLine
 10
0.4791971987259013
 20
0.0548499696939106
 30
0.0
 11
0.4866971509553641
 21
0.0548232011283557
 31
0.0
  0
LINE
  5
CC4
330
1F
100
AcDbEntity
  8
S&C_vistas
  6
Continuous
 62
   255
370
     5
100
AcDbLine
 10
0.4789937576276841
 20
-0.002149667249858
 30
0.0
 11
0.4864937098571468
 21
-0.0021764358154129
 31
0.0
  0
LINE
  5
CC5
330
1F
100
AcDbEntity
  8
S&C_vistas
  6
Continuous
 62
   255
370
     5
100
AcDbLine
 10
-0.0135031054389249
 20
-0.0003918647784204
 30
0.0
 11
-0.0060031532094906
 21
-0.0004186333439752
 31
0.0
  0
LINE
  5
CC6
330
1F
100
AcDbEntity
  8
S&C_vistas
  6
Continuous
 62
   255
370
     5
100
AcDbLine
 10
-0.0132996643407076
 20
0.0566077721653482
 30
0.0
 11
-0.0057997121112733
 21
0.0565810035997934
 31
0.0
  0
LINE
  5
CC7
330
1F
100
AcDbEntity
  8
S&C_vistas
  6
Continuous
 62
   255
370
     5
100
AcDbLine
 10
-0.0057997121112733
 20
0.0565810035997934
 30
0.0
 11
0.2144278277094564
 21
0.0557949752150336
 31
0.0
  0
LINE
  5
CC9
330
1F
100
AcDbEntity
  8
S&C_vistas
  6
Continuous
 62
   255
370
     5
100
AcDbLine
 10
-0.0060031532094906
 20
-0.0004186333439752
 30
0.0
 11
0.0334965951989029
 21
-0.0005596144558976
 31
0.0
  0
LINE
  5
CCA
330
1F
100
AcDbEntity
  8
S&C_vistas
  6
Continuous
 62
   255
370
     5
100
AcDbLine
 10
0.0334965951989029
 20
-0.0005596144558976
 30
0.0
 11
0.0335251483354949
 21
0.0074403345888777
 31
0.0
  0
LINE
  5
CCB
330
1F
100
AcDbEntity
  8
S&C_vistas
  6
Continuous
 62
   255
370
     5
100
AcDbLine
 10
0.2587947709435748
 20
0.0066363101796771
 30
0.0
 11
0.4395225623559111
 21
0.0059912629068397
 31
0.0
  0
LINE
  5
CCC
330
1F
100
AcDbEntity
  8
S&C_vistas
  6
Continuous
 62
   255
370
     5
100
AcDbLine
 10
0.0335251483354949
 20
0.0074403345888777
 30
0.0
 11
0.2142529397478312
 21
0.0067952873160404
 31
0.0
  0
LINE
  5
CCD
330
1F
100
AcDbEntity
  8
S&C_vistas
  6
Continuous
 62
   255
370
     5
100
AcDbLine
 10
0.4395225623559111
 20
0.0059912629068397
 30
0.0
 11
0.4394940092193191
 21
-0.0020086861379356
 31
0.0
  0
LINE
  5
CCE
330
1F
100
AcDbEntity
  8
S&C_vistas
  6
Continuous
 62
   255
370
     5
100
AcDbLine
 10
0.4394940092193191
 20
-0.0020086861379356
 30
0.0
 11
0.4789937576276841
 21
-0.002149667249858
 31
0.0
  0
LINE
  5
CD0
330
1F
100
AcDbEntity
  8
S&C_vistas
  6
Continuous
 62
   255
370
     5
100
AcDbLine
 10
0.2589696589052
 20
0.0556359980786703
 30
0.0
 11
0.4791971987259013
 21
0.0548499696939106
 31
0.0
  0
LINE
  5
CD1
330
1F
100
AcDbEntity
  8
S&C_vistas
  6
Continuous
 62
   255
370
     5
100
AcDbLine
 10
0.0307397326862057
 20
1.188284919869938
 30
0.0
 11
0.0148832786592797
 21
0.9483524618827127
 31
0.0
  0
LINE
  5
CD2
330
1F
100
AcDbEntity
  8
S&C_vistas
  6
Continuous
 62
   255
370
     5
100
AcDbLine
 10
0.4648804124257327
 20
0.946746347949419
 30
0.0
 11
0.4507370575348935
 21
1.186785880198864
 31
0.0
  0
LINE
  5
CD3
330
1F
100
AcDbEntity
  8
S&C_vistas
  6
Continuous
 62
   255
370
     5
100
AcDbLine
 10
0.4646807586921283
 20
0.9467345841637774
 30
0.0
 11
0.4648804124257327
 21
0.946746347949419
 31
0.0
  0
LINE
  5
CD4
330
1F
100
AcDbEntity
  8
S&C_vistas
  6
Continuous
 62
   255
370
     5
100
AcDbLine
 10
0.0148832786592797
 20
0.9483524618827127
 30
0.0
 11
0.0150828433334864
 21
0.948339273220779
 31
0.0
  0
LINE
  5
CD5
330
1F
100
AcDbEntity
  8
S&C_vistas
  6
Continuous
 62
   255
370
     5
100
AcDbLine
 10
0.2332899786694883
 20
0.7817322773091907
 30
0.0
 11
0.2321094701299799
 21
0.450980237772136
 31
0.0
  0
LINE
  5
CD6
330
1F
100
AcDbEntity
  8
S&C_vistas
  6
Continuous
 62
   255
370
     5
100
AcDbLine
 10
0.2338818392292543
 20
0.9475583435447218
 30
0.0
 11
0.2335398186146672
 21
0.8517318314505773
 31
0.0
  0
LINE
  5
CD7
330
1F
100
AcDbEntity
  8
S&C_vistas
  6
Continuous
 62
   255
370
     5
100
AcDbLine
 10
0.2455397421817734
 20
0.8516890017456896
 30
0.0
 11
0.2458817627963605
 21
0.9475155138398341
 31
0.0
  0
LINE
  5
CD8
330
1F
100
AcDbEntity
  8
S&C_vistas
  6
Continuous
 62
   255
370
     5
100
AcDbLine
 10
0.244109393697086
 20
0.4509374080672482
 30
0.0
 11
0.2452899022365945
 21
0.7816894476043031
 31
0.0
  0
LINE
  5
CDF
330
1F
100
AcDbEntity
  8
S&C_vistas
  6
Continuous
 62
   255
370
     5
100
AcDbLine
 10
0.4864937098571468
 20
-0.0021764358154129
 30
0.0
 11
0.4866971509553641
 21
0.0548232011283557
 31
0.0
  0
LINE
  5
CE0
330
1F
100
AcDbEntity
  8
S&C_vistas
  6
Continuous
 62
   255
370
     5
100
AcDbLine
 10
-0.0132996643407076
 20
0.0566077721653482
 30
0.0
 11
-0.0135031054389249
 21
-0.0003918647784204
 31
0.0
  0
POINT
  5
D29
330
1F
100
AcDbEntity
  8
S&C_vistas
  6
Continuous
100
AcDbPoint
 10
0.0307397326862057
 20
1.188284919869938
 30
0.0
 50
359.7955027885025
  0
POINT
  5
D2A
330
1F
100
AcDbEntity
  8
S&C_vistas
  6
Continuous
100
AcDbPoint
 10
-0.0135031054389249
 20
-0.0003918647784204
 30
0.0
 50
359.7955027885025
  0
LINE
  5
D2B
330
1F
100
AcDbEntity
  8
S&C_cotas
  6
Continuous
370
    -2
100
AcDbLine
 10
0.0107398600743633
 20
1.188356302711418
 30
0.0
 11
-0.1674961647822744
 21
1.188992456458756
 31
0.0
  0
LINE
  5
D2C
330
1F
100
AcDbEntity
  8
S&C_cotas
  6
Continuous
370
    -2
100
AcDbLine
 10
-0.0335029780507673
 20
-0.0003204819369406
 30
0.0
 11
-0.1717392576837272
 21
0.0001729061274383
 31
0.0
  0
MTEXT
  5
D2D
330
1F
100
AcDbEntity
  8
S&C_cotas
  6
Continuous
100
AcDbMText
 10
-0.1324953349808389
 20
0.6576235495750742
 30
0.0
 40
0.02
 41
0.0
 71
     5
 72
     1
  1
{120/150 cm / 47.2/59.1"}
  7
ARIAL
 11
0.003569142073985232
 21
0.9999936305921433
 31
0.0
 73
     1
 44
1.0
1001
ACAD
1000
ACAD_MTEXT_DEFINED_HEIGHT_BEGIN
1070
    46
1040
0.0336533333333333
1000
ACAD_MTEXT_DEFINED_HEIGHT_END
  0
LINE
  5
D90
330
1F
100
AcDbEntity
  8
S&C_vistas
  6
Continuous
 62
   255
370
     5
100
AcDbLine
 10
0.2046658787991317
 20
-0.5184650122386868
 30
0.0
 11
0.2046587405150471
 21
-0.5204649994995996
 31
0.0
  0
LINE
  5
D91
330
1F
100
AcDbEntity
  8
S&C_vistas
  6
Continuous
 62
   255
370
     5
100
AcDbLine
 10
0.2335384389915828
 20
-0.549551589212122
 30
0.0
 11
0.2355384262528321
 21
-0.5495587274963328
 31
0.0
  0
LINE
  5
D92
330
1F
100
AcDbEntity
  8
S&C_vistas
  6
Continuous
 62
   255
370
     5
100
AcDbLine
 10
0.2646321542493374
 20
-0.5186790417586606
 30
0.0
 11
0.2646250159652528
 21
-0.5206790290195736
 31
0.0
  0
LINE
  5
D93
330
1F
100
AcDbEntity
  8
S&C_vistas
  6
Continuous
 62
   255
370
     5
100
AcDbLine
 10
0.2337524685115524
 20
-0.4895853137619275
 30
0.0
 11
0.2357524557728017
 21
-0.489592452046138
 31
0.0
  0
LINE
  5
D99
330
1F
100
AcDbEntity
  8
S&C_vistas
  6
Continuous
 62
   255
370
     5
100
AcDbLine
 10
0.2529029542870054
 20
-0.5429007381237446
 30
0.0
 11
0.3771583841196752
 21
-0.6681818213236467
 31
0.0
  0
LINE
  5
D9B
330
1F
100
AcDbEntity
  8
S&C_vistas
  6
Continuous
 62
   255
370
     5
100
AcDbLine
 10
0.0887503851956087
 20
-0.3742811371244219
 30
0.0
 11
0.2126344601973828
 21
-0.4991878001840629
 31
0.0
  0
LINE
  5
D9D
330
1F
100
AcDbEntity
  8
S&C_vistas
  6
Continuous
 62
   255
370
     5
100
AcDbLine
 10
0.3825859839383546
 20
-0.3763644522415602
 30
0.0
 11
0.2577547635961471
 21
-0.5004419525654084
 31
0.0
  0
ARC
  5
D9E
330
1F
100
AcDbEntity
  8
S&C_vistas
  6
Continuous
 62
   255
370
     5
100
AcDbCircle
 10
-0.2346454473821923
 20
-0.5195720206291302
 30
0.0
 40
0.205900000000014
210
0.0
220
0.0
230
-1.0
100
AcDbArc
 50
135.9313308660474
 51
315.9313308660474
  0
ARC
  5
D9F
330
1F
100
AcDbEntity
  8
S&C_vistas
  6
Continuous
 62
   255
370
     5
100
AcDbCircle
 10
-0.2346454473821923
 20
-0.5195720206291302
 30
0.0
 40
0.205900000000014
210
0.0
220
0.0
230
-1.0
100
AcDbArc
 50
315.9313308660484
 51
135.9313308660474
  0
LINE
  5
DA0
330
1F
100
AcDbEntity
  8
S&C_vistas
  6
Continuous
 62
   255
370
     5
100
AcDbLine
 10
0.2115361311682331
 20
-0.5387020886928479
 30
0.0
 11
0.0867049108260258
 21
-0.6627795890166959
 31
0.0
  0
LINE
  5
DCE
330
1F
100
AcDbEntity
  8
S&C_vistas
  6
Continuous
 62
   255
370
     5
100
AcDbLine
 10
0.3845745682605795
 20
-0.3793674491583583
 30
0.0
 11
0.2597433479183722
 21
-0.5034449494822063
 31
0.0
  0
LINE
  5
DCF
330
1F
100
AcDbEntity
  8
S&C_vistas
  6
Continuous
 62
   255
370
     5
100
AcDbLine
 10
0.0865477734393457
 20
-0.3764504810835108
 30
0.0
 11
0.2104318484411196
 21
-0.501357144143152
 31
0.0
  0
LINE
  5
DD0
330
1F
100
AcDbEntity
  8
S&C_vistas
  6
Continuous
 62
   255
370
     5
100
AcDbLine
 10
0.2093087425634471
 20
-0.5363646883780872
 30
0.0
 11
0.0844775222212397
 21
-0.6604421887019349
 31
0.0
  0
LINE
  5
DD1
330
1F
100
AcDbEntity
  8
S&C_vistas
  6
Continuous
 62
   255
370
     5
100
AcDbLine
 10
0.2549412343202387
 20
-0.5400711564827475
 30
0.0
 11
0.3791966641529088
 21
-0.6653522396826493
 31
0.0
  0
LINE
  5
EEE
330
1F
100
AcDbEntity
  8
S&C_vistas
  6
Continuous
 62
   255
370
     5
100
AcDbLine
 10
0.230594325628822
 20
0.4467397647738974
 30
0.0
 11
0.2317899882236071
 21
0.7817376310223018
 31
0.0
  0
LINE
  5
EF0
330
1F
100
AcDbEntity
  8
S&C_vistas
  6
Continuous
 62
   255
370
     5
100
AcDbLine
 10
0.2455942300876905
 20
0.4466862276427879
 30
0.0
 11
0.2467898926824756
 21
0.7816840938911922
 31
0.0
  0
LINE
  5
EF1
330
1F
100
AcDbEntity
  8
S&C_vistas
  6
Continuous
 62
   255
370
     5
100
AcDbLine
 10
0.2454122038419175
 20
0.3956865524826575
 30
0.0
 11
0.2443414612197217
 21
0.0956884633049465
 31
0.0
  0
ENDSEC
  0
SECTION
  2
OBJECTS
  0
DICTIONARY
  5
C
330
0
100
AcDbDictionary
281
     1
  3
ACAD_DETAILVIEWSTYLE
350
EF8
  3
ACAD_GROUP
350
D
  3
ACAD_IMAGE_VARS
350
ECA
  3
ACAD_LAYOUT
350
1A
  3
ACAD_MLINESTYLE
350
17
  3
ACAD_PLOTSETTINGS
350
19
  3
ACAD_PLOTSTYLENAME
350
E
  3
ACAD_SCALELIST
350
99
  3
ACAD_SECTIONVIEWSTYLE
350
EF9
  3
AcDbVariableDictionary
350
59
  3
APPDATA
350
EC9
  3
DWGPROPS
350
F16
  0
DICTIONARY
  5
EF8
102
{ACAD_REACTORS
330
C
102
}
330
C
100
AcDbDictionary
281
     1
  0
DICTIONARY
  5
D
102
{ACAD_REACTORS
330
C
102
}
330
C
100
AcDbDictionary
281
     1
  0
RASTERVARIABLES
  5
ECA
102
{ACAD_REACTORS
330
C
102
}
330
C
100
AcDbRasterVariables
 90
        0
 70
     1
 71
     1
 72
     5
  0
DICTIONARY
  5
1A
102
{ACAD_REACTORS
330
C
102
}
330
C
100
AcDbDictionary
281
     1
  3
Layout1
350
74
  3
Layout2
350
BF
  3
Model
350
22
  0
DICTIONARY
  5
17
102
{ACAD_REACTORS
330
C
102
}
330
C
100
AcDbDictionary
281
     1
  3
Standard
350
18
  0
DICTIONARY
  5
19
102
{ACAD_REACTORS
330
C
102
}
330
C
100
AcDbDictionary
281
     1
  0
ACDBDICTIONARYWDFLT
  5
E
102
{ACAD_REACTORS
330
C
102
}
330
C
100
AcDbDictionary
281
     1
  3
Normal
350
F
100
AcDbDictionaryWithDefault
340
F
  0
DICTIONARY
  5
99
102
{ACAD_REACTORS
330
C
102
}
330
C
100
AcDbDictionary
281
     1
  3
A0
350
1D9
  3
A1
350
1DA
  3
A2
350
1DB
  3
A3
350
1DC
  3
A4
350
1DD
  3
A5
350
1DE
  3
A6
350
1DF
  3
A7
350
1E0
  3
A8
350
1E1
  3
A9
350
1E2
  3
B0
350
1E3
  3
B1
350
1E4
  3
B2
350
1E5
  3
B3
350
1E6
  3
B4
350
1E7
  3
B5
350
1E8
  3
B6
350
1E9
  3
B7
350
1EA
  3
B8
350
1EB
  3
B9
350
1EC
  3
C0
350
1ED
  3
C1
350
1EE
  3
C2
350
1EF
  3
C3
350
1F0
  3
C4
350
1F1
  3
C5
350
1F2
  3
C6
350
1F3
  3
C7
350
1F4
  3
C8
350
1F5
  3
C9
350
1F6
  3
D0
350
1F7
  3
D1
350
1F8
  3
D2
350
1F9
  0
DICTIONARY
  5
EF9
102
{ACAD_REACTORS
330
C
102
}
330
C
100
AcDbDictionary
281
     1
  0
DICTIONARY
  5
59
102
{ACAD_REACTORS
330
C
102
}
330
C
100
AcDbDictionary
281
     1
  3
DIMASSOC
350
1D7
  3
HIDETEXT
350
1D8
  0
DICTIONARY
  5
EC9
102
{ACAD_REACTORS
330
C
102
}
330
C
100
AcDbDictionary
281
     1
  0
XRECORD
  5
F16
102
{ACAD_REACTORS
330
C
102
}
330
C
100
AcDbXrecord
280
     1
  1
DWGPROPS COOKIE
  2

  3

  4

  6

  7

  8
ClaudiaR
  9

300
=
301
=
302
=
303
=
304
=
305
=
306
=
307
=
308
=
309
=
 40
0.0
 41
2453353.717125822
 42
2456643.403572581
  1

 90
        0
  0
LAYOUT
  5
74
102
{ACAD_REACTORS
330
1A
102
}
330
1A
100
AcDbPlotSettings
  1

  2
\\ADSCCNDC1\hq601xrx1
  4

  6

 40
0.0
 41
0.0
 42
0.0
 43
0.0
 44
0.0
 45
0.0
 46
0.0
 47
0.0
 48
0.0
 49
0.0
140
0.0
141
0.0
142
1.0
143
1.0
 70
   688
 72
     0
 73
     0
 74
     5
  7

 75
    16
147
1.0
148
0.0
149
0.0
100
AcDbLayout
  1
Layout1
 70
     1
 71
     1
 10
0.0
 20
0.0
 11
12.0
 21
9.0
 12
0.0
 22
0.0
 32
0.0
 14
0.0
 24
0.0
 34
0.0
 15
0.0
 25
0.0
 35
0.0
146
0.0
 13
0.0
 23
0.0
 33
0.0
 16
1.0
 26
0.0
 36
0.0
 17
0.0
 27
1.0
 37
0.0
 76
     0
330
73
  0
LAYOUT
  5
BF
102
{ACAD_REACTORS
330
1A
102
}
330
1A
100
AcDbPlotSettings
  1

  2
none_device
  4
Sun_Hi-Res_(1280.00_x_1600.00_Pixels)
  6

 40
0.0
 41
0.0
 42
0.0
 43
0.0
 44
1280.0
 45
1600.0
 46
0.0
 47
0.0
 48
0.0
 49
0.0
140
0.0
141
0.0
142
1.0
143
1.0
 70
   544
 72
     2
 73
     0
 74
     5
  7

 75
    16
147
1.0
148
0.0
149
0.0
100
AcDbLayout
  1
Layout2
 70
     1
 71
     2
 10
0.0
 20
0.0
 11
12.0
 21
9.0
 12
0.0
 22
0.0
 32
0.0
 14
1.000000000000000E+20
 24
1.000000000000000E+20
 34
1.000000000000000E+20
 15
-1.000000000000000E+20
 25
-1.000000000000000E+20
 35
-1.000000000000000E+20
146
0.0
 13
0.0
 23
0.0
 33
0.0
 16
1.0
 26
0.0
 36
0.0
 17
0.0
 27
1.0
 37
0.0
 76
     0
330
BE
  0
LAYOUT
  5
22
102
{ACAD_REACTORS
330
1A
102
}
330
1A
100
AcDbPlotSettings
  1

  2
none_device
  4
Sun_Hi-Res_(1280.00_x_1600.00_Pixels)
  6

 40
6.349999904632568
 41
6.349999904632568
 42
6.350006103515625
 43
6.350006103515625
 44
1280.0
 45
1600.0
 46
0.0
 47
0.0
 48
0.0
 49
0.0
140
0.0
141
0.0
142
1.0
143
0.0026617046275501
 70
 11952
 72
     2
 73
     0
 74
     0
  7

 75
     0
147
0.28088241027059
148
0.1311165230791651
149
0.096403374003771
100
AcDbLayout
  1
Model
 70
     1
 71
     0
 10
0.0
 20
0.0
 11
12.0
 21
9.0
 12
0.0
 22
0.0
 32
0.0
 14
-0.1582371601218133
 24
-0.8705755532279652
 34
0.0
 15
0.7050664139588598
 25
1.311980299882264
 35
0.0
146
0.0
 13
0.0
 23
0.0
 33
0.0
 16
1.0
 26
0.0
 36
0.0
 17
0.0
 27
1.0
 37
0.0
 76
     0
330
1F
331
97
  0
MLINESTYLE
  5
18
102
{ACAD_REACTORS
330
17
102
}
330
17
100
AcDbMlineStyle
  2
Standard
 70
     0
  3

 62
   256
 51
90.0
 52
90.0
 71
     2
 49
0.5
 62
   256
  6
BYLAYER
 49
-0.5
 62
   256
  6
BYLAYER
  0
ACDBPLACEHOLDER
  5
F
102
{ACAD_REACTORS
330
E
102
}
330
E
  0
SCALE
  5
1D9
102
{ACAD_REACTORS
330
99
102
}
330
99
100
AcDbScale
 70
     0
300
1:1
140
1.0
141
1.0
290
     1
  0
SCALE
  5
1DA
102
{ACAD_REACTORS
330
99
102
}
330
99
100
AcDbScale
 70
     0
300
1:2
140
1.0
141
2.0
290
     0
  0
SCALE
  5
1DB
102
{ACAD_REACTORS
330
99
102
}
330
99
100
AcDbScale
 70
     0
300
1:4
140
1.0
141
4.0
290
     0
  0
SCALE
  5
1DC
102
{ACAD_REACTORS
330
99
102
}
330
99
100
AcDbScale
 70
     0
300
1:5
140
1.0
141
5.0
290
     0
  0
SCALE
  5
1DD
102
{ACAD_REACTORS
330
99
102
}
330
99
100
AcDbScale
 70
     0
300
1:8
140
1.0
141
8.0
290
     0
  0
SCALE
  5
1DE
102
{ACAD_REACTORS
330
99
102
}
330
99
100
AcDbScale
 70
     0
300
1:10
140
1.0
141
10.0
290
     0
  0
SCALE
  5
1DF
102
{ACAD_REACTORS
330
99
102
}
330
99
100
AcDbScale
 70
     0
300
1:16
140
1.0
141
16.0
290
     0
  0
SCALE
  5
1E0
102
{ACAD_REACTORS
330
99
102
}
330
99
100
AcDbScale
 70
     0
300
1:20
140
1.0
141
20.0
290
     0
  0
SCALE
  5
1E1
102
{ACAD_REACTORS
330
99
102
}
330
99
100
AcDbScale
 70
     0
300
1:30
140
1.0
141
30.0
290
     0
  0
SCALE
  5
1E2
102
{ACAD_REACTORS
330
99
102
}
330
99
100
AcDbScale
 70
     0
300
1:40
140
1.0
141
40.0
290
     0
  0
SCALE
  5
1E3
102
{ACAD_REACTORS
330
99
102
}
330
99
100
AcDbScale
 70
     0
300
1:50
140
1.0
141
50.0
290
     0
  0
SCALE
  5
1E4
102
{ACAD_REACTORS
330
99
102
}
330
99
100
AcDbScale
 70
     0
300
1:100
140
1.0
141
100.0
290
     0
  0
SCALE
  5
1E5
102
{ACAD_REACTORS
330
99
102
}
330
99
100
AcDbScale
 70
     0
300
2:1
140
2.0
141
1.0
290
     0
  0
SCALE
  5
1E6
102
{ACAD_REACTORS
330
99
102
}
330
99
100
AcDbScale
 70
     0
300
4:1
140
4.0
141
1.0
290
     0
  0
SCALE
  5
1E7
102
{ACAD_REACTORS
330
99
102
}
330
99
100
AcDbScale
 70
     0
300
8:1
140
8.0
141
1.0
290
     0
  0
SCALE
  5
1E8
102
{ACAD_REACTORS
330
99
102
}
330
99
100
AcDbScale
 70
     0
300
10:1
140
10.0
141
1.0
290
     0
  0
SCALE
  5
1E9
102
{ACAD_REACTORS
330
99
102
}
330
99
100
AcDbScale
 70
     0
300
100:1
140
100.0
141
1.0
290
     0
  0
SCALE
  5
1EA
102
{ACAD_REACTORS
330
99
102
}
330
99
100
AcDbScale
 70
     0
300
1/128" = 1'-0"
140
0.0078125
141
12.0
290
     0
  0
SCALE
  5
1EB
102
{ACAD_REACTORS
330
99
102
}
330
99
100
AcDbScale
 70
     0
300
1/64" = 1'-0"
140
0.015625
141
12.0
290
     0
  0
SCALE
  5
1EC
102
{ACAD_REACTORS
330
99
102
}
330
99
100
AcDbScale
 70
     0
300
1/32" = 1'-0"
140
0.03125
141
12.0
290
     0
  0
SCALE
  5
1ED
102
{ACAD_REACTORS
330
99
102
}
330
99
100
AcDbScale
 70
     0
300
1/16" = 1'-0"
140
0.0625
141
12.0
290
     0
  0
SCALE
  5
1EE
102
{ACAD_REACTORS
330
99
102
}
330
99
100
AcDbScale
 70
     0
300
3/32" = 1'-0"
140
0.09375
141
12.0
290
     0
  0
SCALE
  5
1EF
102
{ACAD_REACTORS
330
99
102
}
330
99
100
AcDbScale
 70
     0
300
1/8" = 1'-0"
140
0.125
141
12.0
290
     0
  0
SCALE
  5
1F0
102
{ACAD_REACTORS
330
99
102
}
330
99
100
AcDbScale
 70
     0
300
3/16" = 1'-0"
140
0.1875
141
12.0
290
     0
  0
SCALE
  5
1F1
102
{ACAD_REACTORS
330
99
102
}
330
99
100
AcDbScale
 70
     0
300
1/4" = 1'-0"
140
0.25
141
12.0
290
     0
  0
SCALE
  5
1F2
102
{ACAD_REACTORS
330
99
102
}
330
99
100
AcDbScale
 70
     0
300
3/8" = 1'-0"
140
0.375
141
12.0
290
     0
  0
SCALE
  5
1F3
102
{ACAD_REACTORS
330
99
102
}
330
99
100
AcDbScale
 70
     0
300
1/2" = 1'-0"
140
0.5
141
12.0
290
     0
  0
SCALE
  5
1F4
102
{ACAD_REACTORS
330
99
102
}
330
99
100
AcDbScale
 70
     0
300
3/4" = 1'-0"
140
0.75
141
12.0
290
     0
  0
SCALE
  5
1F5
102
{ACAD_REACTORS
330
99
102
}
330
99
100
AcDbScale
 70
     0
300
1" = 1'-0"
140
1.0
141
12.0
290
     0
  0
SCALE
  5
1F6
102
{ACAD_REACTORS
330
99
102
}
330
99
100
AcDbScale
 70
     0
300
1-1/2" = 1'-0"
140
1.5
141
12.0
290
     0
  0
SCALE
  5
1F7
102
{ACAD_REACTORS
330
99
102
}
330
99
100
AcDbScale
 70
     0
300
3" = 1'-0"
140
3.0
141
12.0
290
     0
  0
SCALE
  5
1F8
102
{ACAD_REACTORS
330
99
102
}
330
99
100
AcDbScale
 70
     0
300
6" = 1'-0"
140
6.0
141
12.0
290
     0
  0
SCALE
  5
1F9
102
{ACAD_REACTORS
330
99
102
}
330
99
100
AcDbScale
 70
     0
300
1'-0" = 1'-0"
140
12.0
141
12.0
290
     0
  0
DICTIONARYVAR
  5
1D7
102
{ACAD_REACTORS
330
59
102
}
330
59
100
DictionaryVariables
280
     0
  1
2
  0
DICTIONARYVAR
  5
1D8
102
{ACAD_REACTORS
330
59
102
}
330
59
100
DictionaryVariables
280
     0
  1
1
  0
ENDSEC
  0
EOF
