  0
SECTION
  2
HEADER
  9
$ACADVER
  1
AC1015
  9
$ACADMAINTVER
 70
     6
  9
$DWGCODEPAGE
  3
ANSI_1252
  9
$INSBASE
 10
0.0
 20
0.0
 30
0.0
  9
$EXTMIN
 10
0.0
 20
0.0
 30
0.0
  9
$EXTMAX
 10
29.7
 20
21.0
 30
0.0
  9
$LIMMIN
 10
0.0
 20
0.0
  9
$LIMMAX
 10
29.7
 20
21.0
  9
$ORTHOMODE
 70
     0
  9
$REGENMODE
 70
     1
  9
$FILLMODE
 70
     1
  9
$QTEXTMODE
 70
     0
  9
$MIRRTEXT
 70
     1
  9
$LTSCALE
 40
1.0
  9
$ATTMODE
 70
     1
  9
$TEXTSIZE
 40
0.35
  9
$TRACEWID
 40
1.0
  9
$TEXTSTYLE
  7
Standard
  9
$CLAYER
  8
0
  9
$CELTYPE
  6
ByLayer
  9
$CECOLOR
 62
   256
  9
$CELTSCALE
 40
1.0
  9
$DISPSILH
 70
     0
  9
$DIMSCALE
 40
1.0
  9
$DIMASZ
 40
0.3302
  9
$DIMEXO
 40
0.7
  9
$DIMDLI
 40
3.75
  9
$DIMRND
 40
0.0
  9
$DIMDLE
 40
0.0
  9
$DIMEXE
 40
0.1
  9
$DIMTP
 40
0.0
  9
$DIMTM
 40
0.0
  9
$DIMTXT
 40
0.3
  9
$DIMCEN
 40
2.5
  9
$DIMTSZ
 40
0.0
  9
$DIMTOL
 70
     0
  9
$DIMLIM
 70
     0
  9
$DIMTIH
 70
     1
  9
$DIMTOH
 70
     1
  9
$DIMSE1
 70
     0
  9
$DIMSE2
 70
     0
  9
$DIMTAD
 70
     1
  9
$DIMZIN
 70
     0
  9
$DIMBLK
  1

  9
$DIMASO
 70
     1
  9
$DIMSHO
 70
     1
  9
$DIMPOST
  1

  9
$DIMAPOST
  1

  9
$DIMALT
 70
     0
  9
$DIMALTD
 70
     3
  9
$DIMALTF
 40
0.3937007874015748
  9
$DIMLFAC
 40
10.0
  9
$DIMTOFL
 70
     1
  9
$DIMTVP
 40
0.0
  9
$DIMTIX
 70
     0
  9
$DIMSOXD
 70
     0
  9
$DIMSAH
 70
     0
  9
$DIMBLK1
  1

  9
$DIMBLK2
  1

  9
$DIMSTYLE
  2
ISO-25
  9
$DIMCLRD
 70
     0
  9
$DIMCLRE
 70
     0
  9
$DIMCLRT
 70
     0
  9
$DIMTFAC
 40
1.0
  9
$DIMGAP
 40
0.5
  9
$DIMJUST
 70
     0
  9
$DIMSD1
 70
     0
  9
$DIMSD2
 70
     0
  9
$DIMTOLJ
 70
     0
  9
$DIMTZIN
 70
     0
  9
$DIMALTZ
 70
     0
  9
$DIMALTTZ
 70
     0
  9
$DIMUPT
 70
     0
  9
$DIMDEC
 70
     1
  9
$DIMTDEC
 70
     1
  9
$DIMALTU
 70
     2
  9
$DIMALTTD
 70
     3
  9
$DIMTXSTY
  7
Standard
  9
$DIMAUNIT
 70
     0
  9
$DIMADEC
 70
     1
  9
$DIMALTRND
 40
0.0
  9
$DIMAZIN
 70
     0
  9
$DIMDSEP
 70
    44
  9
$DIMATFIT
 70
     3
  9
$DIMFRAC
 70
     0
  9
$DIMLDRBLK
  1

  9
$DIMLUNIT
 70
     2
  9
$DIMLWD
 70
    -2
  9
$DIMLWE
 70
    -2
  9
$DIMTMOVE
 70
     0
  9
$LUNITS
 70
     2
  9
$LUPREC
 70
     1
  9
$SKETCHINC
 40
1.0
  9
$FILLETRAD
 40
10.0
  9
$AUNITS
 70
     0
  9
$AUPREC
 70
     1
  9
$MENU
  1
.
  9
$ELEVATION
 40
0.0
  9
$PELEVATION
 40
0.0
  9
$THICKNESS
 40
0.0
  9
$LIMCHECK
 70
     0
  9
$CHAMFERA
 40
0.0
  9
$CHAMFERB
 40
0.0
  9
$CHAMFERC
 40
0.0
  9
$CHAMFERD
 40
0.0
  9
$SKPOLY
 70
     0
  9
$TDCREATE
 40
2457353.605882824
  9
$TDUCREATE
 40
2457353.564216157
  9
$TDUPDATE
 40
2457465.522773507
  9
$TDUUPDATE
 40
2457465.48110684
  9
$TDINDWG
 40
0.0097951042
  9
$TDUSRTIMER
 40
2457465.480988472
  9
$USRTIMER
 70
     1
  9
$ANGBASE
 50
0.0
  9
$ANGDIR
 70
     0
  9
$PDMODE
 70
     0
  9
$PDSIZE
 40
-1.0
  9
$PLINEWID
 40
0.0
  9
$SPLFRAME
 70
     0
  9
$SPLINETYPE
 70
     6
  9
$SPLINESEGS
 70
     8
  9
$HANDSEED
  5
3E3
  9
$SURFTAB1
 70
     6
  9
$SURFTAB2
 70
     6
  9
$SURFTYPE
 70
     6
  9
$SURFU
 70
     6
  9
$SURFV
 70
     6
  9
$UCSBASE
  2

  9
$UCSNAME
  2

  9
$UCSORG
 10
0.0
 20
0.0
 30
0.0
  9
$UCSXDIR
 10
1.0
 20
0.0
 30
0.0
  9
$UCSYDIR
 10
0.0
 20
1.0
 30
0.0
  9
$UCSORTHOREF
  2

  9
$UCSORTHOVIEW
 70
     0
  9
$UCSORGTOP
 10
0.0
 20
0.0
 30
0.0
  9
$UCSORGBOTTOM
 10
0.0
 20
0.0
 30
0.0
  9
$UCSORGLEFT
 10
0.0
 20
0.0
 30
0.0
  9
$UCSORGRIGHT
 10
0.0
 20
0.0
 30
0.0
  9
$UCSORGFRONT
 10
0.0
 20
0.0
 30
0.0
  9
$UCSORGBACK
 10
0.0
 20
0.0
 30
0.0
  9
$PUCSBASE
  2

  9
$PUCSNAME
  2

  9
$PUCSORG
 10
0.0
 20
0.0
 30
0.0
  9
$PUCSXDIR
 10
1.0
 20
0.0
 30
0.0
  9
$PUCSYDIR
 10
0.0
 20
1.0
 30
0.0
  9
$PUCSORTHOREF
  2

  9
$PUCSORTHOVIEW
 70
     0
  9
$PUCSORGTOP
 10
0.0
 20
0.0
 30
0.0
  9
$PUCSORGBOTTOM
 10
0.0
 20
0.0
 30
0.0
  9
$PUCSORGLEFT
 10
0.0
 20
0.0
 30
0.0
  9
$PUCSORGRIGHT
 10
0.0
 20
0.0
 30
0.0
  9
$PUCSORGFRONT
 10
0.0
 20
0.0
 30
0.0
  9
$PUCSORGBACK
 10
0.0
 20
0.0
 30
0.0
  9
$USERI1
 70
     0
  9
$USERI2
 70
     0
  9
$USERI3
 70
     0
  9
$USERI4
 70
     0
  9
$USERI5
 70
     0
  9
$USERR1
 40
0.0
  9
$USERR2
 40
0.0
  9
$USERR3
 40
0.0
  9
$USERR4
 40
0.0
  9
$USERR5
 40
0.0
  9
$WORLDVIEW
 70
     1
  9
$SHADEDGE
 70
     3
  9
$SHADEDIF
 70
    70
  9
$TILEMODE
 70
     1
  9
$MAXACTVP
 70
    64
  9
$PINSBASE
 10
0.0
 20
0.0
 30
0.0
  9
$PLIMCHECK
 70
     0
  9
$PEXTMIN
 10
1.000000000000000E+20
 20
1.000000000000000E+20
 30
1.000000000000000E+20
  9
$PEXTMAX
 10
-1.000000000000000E+20
 20
-1.000000000000000E+20
 30
-1.000000000000000E+20
  9
$PLIMMIN
 10
0.0
 20
0.0
  9
$PLIMMAX
 10
0.0
 20
0.0
  9
$UNITMODE
 70
     0
  9
$VISRETAIN
 70
     1
  9
$PLINEGEN
 70
     0
  9
$PSLTSCALE
 70
     1
  9
$TREEDEPTH
 70
  3020
  9
$CMLSTYLE
  2
Standard
  9
$CMLJUST
 70
     0
  9
$CMLSCALE
 40
20.0
  9
$PROXYGRAPHICS
 70
     1
  9
$MEASUREMENT
 70
     1
  9
$CELWEIGHT
370
    -1
  9
$ENDCAPS
280
     0
  9
$JOINSTYLE
280
     0
  9
$LWDISPLAY
290
     1
  9
$INSUNITS
 70
     4
  9
$HYPERLINKBASE
  1

  9
$STYLESHEET
  1

  9
$XEDIT
290
     1
  9
$CEPSNTYPE
380
     0
  9
$PSTYLEMODE
290
     1
  9
$FINGERPRINTGUID
  2
{88E74B09-83FB-4E1F-A623-17714B60EA3D}
  9
$VERSIONGUID
  2
{FAEB1C32-E019-11D5-929B-00C0DF256EC4}
  9
$EXTNAMES
290
     1
  9
$PSVPSCALE
 40
0.0
  9
$OLESTARTUP
290
     0
  0
ENDSEC
  0
SECTION
  2
CLASSES
  0
CLASS
  1
ACDBDICTIONARYWDFLT
  2
AcDbDictionaryWithDefault
  3
ObjectDBX Classes
 90
        0
280
     0
281
     0
  0
CLASS
  1
VISUALSTYLE
  2
AcDbVisualStyle
  3
ObjectDBX Classes
 90
     4095
280
     0
281
     0
  0
CLASS
  1
MATERIAL
  2
AcDbMaterial
  3
ObjectDBX Classes
 90
     1153
280
     0
281
     0
  0
CLASS
  1
SCALE
  2
AcDbScale
  3
ObjectDBX Classes
 90
     1153
280
     0
281
     0
  0
CLASS
  1
TABLESTYLE
  2
AcDbTableStyle
  3
ObjectDBX Classes
 90
     4095
280
     0
281
     0
  0
CLASS
  1
MLEADERSTYLE
  2
AcDbMLeaderStyle
  3
ACDB_MLEADERSTYLE_CLASS
 90
     4095
280
     0
281
     0
  0
CLASS
  1
SUN
  2
AcDbSun
  3
SCENEOE
 90
     1024
280
     0
281
     0
  0
CLASS
  1
ACDBPLACEHOLDER
  2
AcDbPlaceHolder
  3
ObjectDBX Classes
 90
        0
280
     0
281
     0
  0
CLASS
  1
LAYOUT
  2
AcDbLayout
  3
ObjectDBX Classes
 90
        0
280
     0
281
     0
  0
CLASS
  1
RASTERVARIABLES
  2
AcDbRasterVariables
  3
ISM
 90
        0
280
     0
281
     0
  0
CLASS
  1
DICTIONARYVAR
  2
AcDbDictionaryVar
  3
ObjectDBX Classes
 90
        0
280
     0
281
     0
  0
CLASS
  1
DIMASSOC
  2
AcDbDimAssoc
  3
"AcDbDimAssoc|Product Desc:     AcDim ARX App For Dimension|Company:          Autodesk, Inc.|WEB Address:      www.autodesk.com"
 90
        0
280
     0
281
     0
  0
ENDSEC
  0
SECTION
  2
TABLES
  0
TABLE
  2
VPORT
  5
8
330
0
100
AcDbSymbolTable
 70
     1
  0
VPORT
  5
29
330
8
100
AcDbSymbolTableRecord
100
AcDbViewportTableRecord
  2
*Active
 70
     0
 10
0.0
 20
0.0
 11
1.0
 21
1.0
 12
14.33414267594732
 22
7.552331530884929
 13
0.0
 23
0.0
 14
10.0
 24
10.0
 15
10.0
 25
10.0
 16
0.0
 26
0.0
 36
1.0
 17
0.0
 27
0.0
 37
0.0
 40
1.803886264319993
 41
1.935560859188544
 42
50.0
 43
0.0
 44
0.0
 50
0.0
 51
0.0
 71
    16
 72
  2000
 73
     1
 74
     3
 75
     0
 76
     0
 77
     0
 78
     0
281
     0
 65
     1
110
0.0
120
0.0
130
0.0
111
1.0
121
0.0
131
0.0
112
0.0
122
1.0
132
0.0
 79
     0
146
0.0
  0
ENDTAB
  0
TABLE
  2
LTYPE
  5
5
330
0
100
AcDbSymbolTable
 70
     8
  0
LTYPE
  5
14
330
5
100
AcDbSymbolTableRecord
100
AcDbLinetypeTableRecord
  2
ByBlock
 70
     0
  3

 72
    65
 73
     0
 40
0.0
  0
LTYPE
  5
15
330
5
100
AcDbSymbolTableRecord
100
AcDbLinetypeTableRecord
  2
ByLayer
 70
     0
  3

 72
    65
 73
     0
 40
0.0
  0
LTYPE
  5
16
330
5
100
AcDbSymbolTableRecord
100
AcDbLinetypeTableRecord
  2
Continuous
 70
     0
  3
Solid line
 72
    65
 73
     0
 40
0.0
  0
LTYPE
  5
6E
330
5
100
AcDbSymbolTableRecord
100
AcDbLinetypeTableRecord
  2
HIDDEN
 70
     0
  3
Hidden __ __ __ __ __ __ __ __ __ __ __ __ __ __
 72
    65
 73
     2
 40
0.1905
 49
0.127
 74
     0
 49
-0.0635
 74
     0
  0
LTYPE
  5
6F
330
5
100
AcDbSymbolTableRecord
100
AcDbLinetypeTableRecord
  2
PHANTOM
 70
     0
  3
Phantom ______  __  __  ______  __  __  ______
 72
    65
 73
     6
 40
1.27
 49
0.635
 74
     0
 49
-0.127
 74
     0
 49
0.127
 74
     0
 49
-0.127
 74
     0
 49
0.127
 74
     0
 49
-0.127
 74
     0
  0
LTYPE
  5
70
330
5
100
AcDbSymbolTableRecord
100
AcDbLinetypeTableRecord
  2
CENTER
 70
     0
  3
Center ____ _ ____ _ ____ _ ____ _ ____ _ ____
 72
    65
 73
     4
 40
1.016
 49
0.635
 74
     0
 49
-0.127
 74
     0
 49
0.127
 74
     0
 49
-0.127
 74
     0
  0
LTYPE
  5
71
330
5
100
AcDbSymbolTableRecord
100
AcDbLinetypeTableRecord
  2
CENTERX2
 70
     0
  3
Center (2x) ________  __  ________  __  _____
 72
    65
 73
     4
 40
2.032
 49
1.27
 74
     0
 49
-0.254
 74
     0
 49
0.254
 74
     0
 49
-0.254
 74
     0
  0
LTYPE
  5
72
330
5
100
AcDbSymbolTableRecord
100
AcDbLinetypeTableRecord
  2
DOT2
 70
     0
  3
Dot (.5x) ........................................
 72
    65
 73
     2
 40
0.0635
 49
0.0
 74
     0
 49
-0.0635
 74
     0
  0
LTYPE
  5
263
330
5
100
AcDbSymbolTableRecord
100
AcDbLinetypeTableRecord
  2
DASHED2
 70
     0
  3
_ _ _ _ _ _ _ _ _ _ _ _ _ _ _ _ _ _ _ _ _ _ _ _ _ _ _ _ _ _ _
 72
    65
 73
     2
 40
0.375
 49
0.25
 74
     4
 75
     0
340
0
 46
1.0
 50
0.0
 44
0.0
 45
0.0
 49
-0.125
 74
     4
 75
     0
340
0
 46
1.0
 50
0.0
 44
0.0
 45
0.0
  0
LTYPE
  5
264
330
5
100
AcDbSymbolTableRecord
100
AcDbLinetypeTableRecord
  2
HIDDEN2
 70
     0
  3
_ _ _ _ _ _ _ _ _ _ _ _ _ _ _ _ _ _ _ _ _ _ _ _ _ _ _ _ _ _ _
 72
    65
 73
     2
 40
0.1875
 49
0.125
 74
     4
 75
     0
340
0
 46
1.0
 50
0.0
 44
0.0
 45
0.0
 49
-0.0625
 74
     4
 75
     0
340
0
 46
1.0
 50
0.0
 44
0.0
 45
0.0
  0
ENDTAB
  0
TABLE
  2
LAYER
  5
2
330
0
100
AcDbSymbolTable
 70
     5
  0
LAYER
  5
10
330
2
100
AcDbSymbolTableRecord
100
AcDbLayerTableRecord
  2
0
 70
     0
 62
     7
  6
Continuous
370
    -3
390
F
  0
LAYER
  5
73
330
2
100
AcDbSymbolTableRecord
100
AcDbLayerTableRecord
  2
SLD-0
 70
     0
 62
   179
  6
Continuous
370
    -3
390
F
  0
LAYER
  5
74
330
2
100
AcDbSymbolTableRecord
100
AcDbLayerTableRecord
  2
BASIC
 70
     0
 62
   179
  6
Continuous
370
    -3
390
F
  0
LAYER
  5
228
330
2
100
AcDbSymbolTableRecord
100
AcDbLayerTableRecord
  2
Defpoints
 70
     0
 62
     7
  6
Continuous
290
     0
370
    -3
390
F
  0
LAYER
  5
237
330
2
100
AcDbSymbolTableRecord
100
AcDbLayerTableRecord
  2
S&C_cotas
 70
     0
 62
   251
  6
Continuous
370
    -3
390
F
  0
ENDTAB
  0
TABLE
  2
STYLE
  5
3
330
0
100
AcDbSymbolTable
 70
     5
  0
STYLE
  5
11
330
3
100
AcDbSymbolTableRecord
100
AcDbTextStyleTableRecord
  2
Standard
 70
     0
 40
0.0
 41
1.0
 50
0.0
 71
     0
 42
0.35
  3
txt
  4

  0
STYLE
  5
86
330
3
100
AcDbSymbolTableRecord
100
AcDbTextStyleTableRecord
  2
SLDTEXTSTYLE0
 70
     0
 40
0.0
 41
0.605
 50
0.0
 71
     0
 42
0.35
  3
TXT
  4

  0
STYLE
  5
8E
330
3
100
AcDbSymbolTableRecord
100
AcDbTextStyleTableRecord
  2
SLDTEXTSTYLE1
 70
     0
 40
0.0
 41
0.7
 50
0.0
 71
     0
 42
0.35
  3
TXT
  4

  0
STYLE
  5
93
330
3
100
AcDbSymbolTableRecord
100
AcDbTextStyleTableRecord
  2
SLDTEXTSTYLE2
 70
     0
 40
0.0
 41
0.5747457627118644
 50
0.0
 71
     0
 42
0.35
  3
TXT
  4

  0
STYLE
  5
23A
330
3
100
AcDbSymbolTableRecord
100
AcDbTextStyleTableRecord
  2
ARIAL
 70
     0
 40
0.0
 41
1.0
 50
0.0
 71
     0
 42
15.0
  3
ARIAL.TTF
  4

1001
ACAD
1000
Arial
1071
       34
  0
ENDTAB
  0
TABLE
  2
VIEW
  5
6
330
0
100
AcDbSymbolTable
 70
     0
  0
ENDTAB
  0
TABLE
  2
UCS
  5
7
330
0
100
AcDbSymbolTable
 70
     0
  0
ENDTAB
  0
TABLE
  2
APPID
  5
9
330
0
100
AcDbSymbolTable
 70
     4
  0
APPID
  5
12
330
9
100
AcDbSymbolTableRecord
100
AcDbRegAppTableRecord
  2
ACAD
 70
     0
  0
APPID
  5
23E
330
9
100
AcDbSymbolTableRecord
100
AcDbRegAppTableRecord
  2
ACAD_DSTYLE_DIMJAG
 70
     0
  0
APPID
  5
23F
330
9
100
AcDbSymbolTableRecord
100
AcDbRegAppTableRecord
  2
ACAD_DSTYLE_DIMTALN
 70
     0
  0
APPID
  5
3D2
330
9
100
AcDbSymbolTableRecord
100
AcDbRegAppTableRecord
  2
ACAD_DSTYLE_DIMRADIAL_EXTENSION
 70
     0
  0
ENDTAB
  0
TABLE
  2
DIMSTYLE
  5
A
330
0
100
AcDbSymbolTable
 70
     3
100
AcDbDimStyleTable
  0
DIMSTYLE
105
27
330
A
100
AcDbSymbolTableRecord
100
AcDbDimStyleTableRecord
  2
ISO-25
 70
     0
 41
2.5
 42
0.625
 43
3.75
 44
1.25
 73
     0
 74
     0
 77
     1
 78
     8
140
2.5
141
2.5
143
0.03937007874016
147
0.625
171
     3
172
     1
178
     0
271
     2
272
     2
274
     3
278
    44
283
     0
284
     8
340
11
  0
DIMSTYLE
105
158
330
A
100
AcDbSymbolTableRecord
100
AcDbDimStyleTableRecord
  2
SLDDIMSTYLE0
 70
     0
 41
0.1016
 44
0.0
 45
0.000000001
 73
     0
 74
     0
 77
     1
 78
    12
 79
     3
140
0.3
143
0.3937007874015748
144
10.0
147
0.075
148
0.000000001
170
     1
171
     1
173
     1
178
     0
271
     1
272
     1
274
     1
276
     2
284
    12
340
86
341
159
343
159
344
159
  0
DIMSTYLE
105
239
102
{ACAD_REACTORS
330
2C5
330
2D1
330
31D
330
38D
102
}
330
A
100
AcDbSymbolTableRecord
100
AcDbDimStyleTableRecord
  2
S&C_cotas
 70
     0
 41
0.1
 42
0.02
 44
0.018
 73
     0
 74
     0
140
0.02
141
0.0
147
0.0
176
   256
177
   256
271
     0
178
   256
179
     2
271
     0
272
     0
281
     1
282
     1
340
23A
341
23B
342
23B
1001
ACAD_DSTYLE_DIMJAG
1070
   388
1040
1.5
1001
ACAD_DSTYLE_DIMTALN
1070
   392
1070
     0
  0
ENDTAB
  0
TABLE
  2
BLOCK_RECORD
  5
1
330
0
100
AcDbSymbolTable
 70
    30
  0
BLOCK_RECORD
  5
1F
330
1
100
AcDbSymbolTableRecord
100
AcDbBlockTableRecord
  2
*Model_Space
340
22
  0
BLOCK_RECORD
  5
1B
330
1
100
AcDbSymbolTableRecord
100
AcDbBlockTableRecord
  2
*Paper_Space
340
1E
  0
BLOCK_RECORD
  5
23
330
1
100
AcDbSymbolTableRecord
100
AcDbBlockTableRecord
  2
*Paper_Space0
340
26
  0
BLOCK_RECORD
  5
83
330
1
100
AcDbSymbolTableRecord
100
AcDbBlockTableRecord
  2
SW_NOTE_0
340
0
  0
BLOCK_RECORD
  5
90
330
1
100
AcDbSymbolTableRecord
100
AcDbBlockTableRecord
  2
SW_NOTE_1
340
0
  0
BLOCK_RECORD
  5
159
330
1
100
AcDbSymbolTableRecord
100
AcDbBlockTableRecord
  2
_DOT
340
0
102
{BLKREFS
331
168
331
169
331
172
331
173
331
17C
331
17D
331
186
331
187
102
}
  0
BLOCK_RECORD
  5
161
330
1
100
AcDbSymbolTableRecord
100
AcDbBlockTableRecord
  2
_D
340
0
  0
BLOCK_RECORD
  5
16B
330
1
100
AcDbSymbolTableRecord
100
AcDbBlockTableRecord
  2
_D_1
340
0
  0
BLOCK_RECORD
  5
176
330
1
100
AcDbSymbolTableRecord
100
AcDbBlockTableRecord
  2
_D_2
340
0
  0
BLOCK_RECORD
  5
180
330
1
100
AcDbSymbolTableRecord
100
AcDbBlockTableRecord
  2
_D_3
340
0
  0
BLOCK_RECORD
  5
23B
330
1
100
AcDbSymbolTableRecord
100
AcDbBlockTableRecord
  2
_NONE
340
0
  0
BLOCK_RECORD
  5
2C8
330
1
100
AcDbSymbolTableRecord
100
AcDbBlockTableRecord
  2
*D13
340
0
  0
BLOCK_RECORD
  5
2D2
330
1
100
AcDbSymbolTableRecord
100
AcDbBlockTableRecord
  2
*D14
340
0
  0
BLOCK_RECORD
  5
31E
330
1
100
AcDbSymbolTableRecord
100
AcDbBlockTableRecord
  2
*D19
340
0
  0
BLOCK_RECORD
  5
38E
330
1
100
AcDbSymbolTableRecord
100
AcDbBlockTableRecord
  2
*D25
340
0
  0
ENDTAB
  0
ENDSEC
  0
SECTION
  2
BLOCKS
  0
BLOCK
  5
20
330
1F
100
AcDbEntity
  8
0
100
AcDbBlockBegin
  2
*Model_Space
 70
     0
 10
0.0
 20
0.0
 30
0.0
  3
*Model_Space
  1

  0
ENDBLK
  5
21
330
1F
100
AcDbEntity
  8
0
100
AcDbBlockEnd
  0
BLOCK
  5
1C
330
1B
100
AcDbEntity
 67
     1
  8
0
100
AcDbBlockBegin
  2
*Paper_Space
 70
     0
 10
0.0
 20
0.0
 30
0.0
  3
*Paper_Space
  1

  0
ENDBLK
  5
1D
330
1B
100
AcDbEntity
 67
     1
  8
0
100
AcDbBlockEnd
  0
BLOCK
  5
24
330
23
100
AcDbEntity
  8
0
100
AcDbBlockBegin
  2
*Paper_Space0
 70
     0
 10
0.0
 20
0.0
 30
0.0
  3
*Paper_Space0
  1

  0
ENDBLK
  5
25
330
23
100
AcDbEntity
  8
0
100
AcDbBlockEnd
  0
BLOCK
  5
84
330
83
100
AcDbEntity
  8
0
100
AcDbBlockBegin
  2
SW_NOTE_0
 70
     0
 10
0.0
 20
0.0
 30
0.0
  3
SW_NOTE_0
  1

  0
MTEXT
  5
87
330
83
100
AcDbEntity
  8
0
  6
Continuous
 62
     0
370
     0
100
AcDbMText
 10
0.0
 20
0.2062508383635144
 30
0.0
 40
0.16
 41
0.0
 71
     1
 72
     1
  1
Tel. +34 938 462 437
  7
SLDTEXTSTYLE0
 73
     1
 44
1.0
  0
MTEXT
  5
88
330
83
100
AcDbEntity
  8
0
  6
Continuous
 62
     0
370
     0
100
AcDbMText
 10
0.0
 20
-0.0537491623442908
 30
0.0
 40
0.16
 41
0.0
 71
     1
 72
     1
  1
Fax +34 938 711 767
  7
SLDTEXTSTYLE0
 73
     1
 44
1.0
  0
ENDBLK
  5
85
330
83
100
AcDbEntity
  8
0
100
AcDbBlockEnd
  0
BLOCK
  5
91
330
90
100
AcDbEntity
  8
0
100
AcDbBlockBegin
  2
SW_NOTE_1
 70
     0
 10
0.0
 20
0.0
 30
0.0
  3
SW_NOTE_1
  1

  0
MTEXT
  5
94
330
90
100
AcDbEntity
  8
0
  6
Continuous
 62
     0
370
     0
100
AcDbMText
 10
0.0
 20
0.2062508383635144
 30
0.0
 40
0.16
 41
0.0
 71
     1
 72
     1
  1
e-mail: info@santacole.com                www.santacole.com
  7
SLDTEXTSTYLE2
 73
     1
 44
1.0
  0
MTEXT
  5
95
330
90
100
AcDbEntity
  8
0
  6
Continuous
 62
     0
370
     0
100
AcDbMText
 10
0.0
 20
-0.0537491623442908
 30
0.0
 40
0.16
 41
0.0
 71
     1
 72
     1
  1
22/11/2015
  7
SLDTEXTSTYLE0
 73
     1
 44
1.0
  0
ENDBLK
  5
92
330
90
100
AcDbEntity
  8
0
100
AcDbBlockEnd
  0
BLOCK
  5
15A
330
159
100
AcDbEntity
  8
0
100
AcDbBlockBegin
  2
_DOT
 70
     0
 10
0.0
 20
0.0
 30
0.0
  3
_DOT
  1

  0
POLYLINE
  5
15C
330
159
100
AcDbEntity
  8
0
  6
ByBlock
 62
     0
100
AcDb2dPolyline
 66
     1
 10
0.0
 20
0.0
 30
0.0
 70
     1
 40
0.5
 41
0.5
  0
VERTEX
  5
15E
330
15C
100
AcDbEntity
  8
0
  6
ByBlock
 62
     0
100
AcDbVertex
100
AcDb2dVertex
 10
-0.25
 20
0.0
 30
0.0
 42
1.0
  0
VERTEX
  5
15F
330
15C
100
AcDbEntity
  8
0
  6
ByBlock
 62
     0
100
AcDbVertex
100
AcDb2dVertex
 10
0.25
 20
0.0
 30
0.0
 42
1.0
  0
SEQEND
  5
160
330
15C
100
AcDbEntity
  8
0
  6
ByBlock
 62
     0
  0
LINE
  5
15D
330
159
100
AcDbEntity
  8
0
  6
ByBlock
 62
     0
370
    -2
100
AcDbLine
 10
-0.5
 20
0.0
 30
0.0
 11
-1.0
 21
0.0
 31
0.0
  0
ENDBLK
  5
15B
330
159
100
AcDbEntity
  8
0
100
AcDbBlockEnd
  0
BLOCK
  5
162
330
161
100
AcDbEntity
  8
0
100
AcDbBlockBegin
  2
_D
 70
     0
 10
0.0
 20
0.0
 30
0.0
  3
_D
  1

  0
LINE
  5
164
330
161
100
AcDbEntity
  8
BASIC
 62
     0
370
    -2
100
AcDbLine
 10
14.17570378577986
 20
8.059278691009593
 30
0.0
 11
14.26070383577986
 21
8.059278691009593
 31
0.0
  0
LINE
  5
165
330
161
100
AcDbEntity
  8
BASIC
 62
     0
370
    -2
100
AcDbLine
 10
14.17570378577986
 20
7.804278691009594
 30
0.0
 11
14.26070383577986
 21
7.804278691009594
 31
0.0
  0
LINE
  5
166
330
161
100
AcDbEntity
  8
BASIC
 62
     0
370
    -2
100
AcDbLine
 10
14.26070383577986
 20
8.059278691009593
 30
0.0
 11
14.26070383577986
 21
8.262478691009594
 31
0.0
  0
LINE
  5
167
330
161
100
AcDbEntity
  8
BASIC
 62
     0
370
    -2
100
AcDbLine
 10
14.26070383577986
 20
7.804278691009594
 30
0.0
 11
14.26070383577986
 21
7.601078691009594
 31
0.0
  0
INSERT
  5
168
330
161
100
AcDbEntity
  8
BASIC
 62
     0
370
    -2
100
AcDbBlockReference
  2
_DOT
 10
14.26070383577986
 20
8.059278691009593
 30
0.0
 41
0.1016
 42
0.1016
 43
0.1016
 50
270.0000000000004
  0
INSERT
  5
169
330
161
100
AcDbEntity
  8
BASIC
 62
     0
370
    -2
100
AcDbBlockReference
  2
_DOT
 10
14.26070383577986
 20
7.804278691009594
 30
0.0
 41
0.1016
 42
0.1016
 43
0.1016
 50
90.0000000000004
  0
MTEXT
  5
229
330
161
100
AcDbEntity
  8
BASIC
 62
     0
100
AcDbMText
 10
13.88570383577986
 20
7.931778691009591
 30
0.0
 40
0.3
 41
0.0
 71
     2
 72
     1
  1
\A1;26 cm / 10"
  7
SLDTEXTSTYLE0
 11
-6.966105252550029E-15
 21
1.0
 31
0.0
 73
     1
 44
1.0
  0
POINT
  5
22A
330
161
100
AcDbEntity
  8
Defpoints
 62
     0
100
AcDbPoint
 10
14.11320378577986
 20
8.059278691009593
 30
0.0
  0
POINT
  5
22B
330
161
100
AcDbEntity
  8
Defpoints
 62
     0
100
AcDbPoint
 10
14.11320378577986
 20
7.804278691009594
 30
0.0
  0
POINT
  5
22C
330
161
100
AcDbEntity
  8
Defpoints
 62
     0
100
AcDbPoint
 10
14.26070383577986
 20
7.804278691009594
 30
0.0
  0
ENDBLK
  5
163
330
161
100
AcDbEntity
  8
0
100
AcDbBlockEnd
  0
BLOCK
  5
16C
330
16B
100
AcDbEntity
  8
0
100
AcDbBlockBegin
  2
_D_1
 70
     0
 10
0.0
 20
0.0
 30
0.0
  3
_D_1
  1

  0
LINE
  5
16E
330
16B
100
AcDbEntity
  8
BASIC
 62
     0
370
    -2
100
AcDbLine
 10
13.79870378577986
 20
7.741778691009594
 30
0.0
 11
13.79870378577986
 21
7.697256106118926
 31
0.0
  0
LINE
  5
16F
330
16B
100
AcDbEntity
  8
BASIC
 62
     0
370
    -2
100
AcDbLine
 10
14.15070378577986
 20
7.741778691009594
 30
0.0
 11
14.15070378577986
 21
7.697256106118926
 31
0.0
  0
LINE
  5
170
330
16B
100
AcDbEntity
  8
BASIC
 62
     0
370
    -2
100
AcDbLine
 10
13.79870378577986
 20
7.697256106118926
 30
0.0
 11
13.59550378577986
 21
7.697256106118926
 31
0.0
  0
LINE
  5
171
330
16B
100
AcDbEntity
  8
BASIC
 62
     0
370
    -2
100
AcDbLine
 10
14.15070378577986
 20
7.697256106118926
 30
0.0
 11
14.35390378577986
 21
7.697256106118926
 31
0.0
  0
INSERT
  5
172
330
16B
100
AcDbEntity
  8
BASIC
 62
     0
370
    -2
100
AcDbBlockReference
  2
_DOT
 10
13.79870378577986
 20
7.697256106118926
 30
0.0
 41
0.1016
 42
0.1016
 43
0.1016
  0
INSERT
  5
173
330
16B
100
AcDbEntity
  8
BASIC
 62
     0
370
    -2
100
AcDbBlockReference
  2
_DOT
 10
14.15070378577986
 20
7.697256106118926
 30
0.0
 41
0.1016
 42
0.1016
 43
0.1016
 50
180.0
  0
MTEXT
  5
174
330
16B
100
AcDbEntity
  8
BASIC
 62
     0
100
AcDbMText
 10
13.97470378577986
 20
8.072256106118926
 30
0.0
 40
0.3
 41
0.0
 71
     2
 72
     1
  1
\A1;%%c35 cm/ 14"
  7
SLDTEXTSTYLE0
 73
     1
 44
1.0
  0
POINT
  5
22D
330
16B
100
AcDbEntity
  8
Defpoints
 62
     0
100
AcDbPoint
 10
13.79870378577986
 20
7.804278691009594
 30
0.0
  0
POINT
  5
22E
330
16B
100
AcDbEntity
  8
Defpoints
 62
     0
100
AcDbPoint
 10
14.15070378577986
 20
7.804278691009594
 30
0.0
  0
POINT
  5
22F
330
16B
100
AcDbEntity
  8
Defpoints
 62
     0
100
AcDbPoint
 10
14.15070378577986
 20
7.697256106118926
 30
0.0
  0
ENDBLK
  5
16D
330
16B
100
AcDbEntity
  8
0
100
AcDbBlockEnd
  0
BLOCK
  5
177
330
176
100
AcDbEntity
  8
0
100
AcDbBlockBegin
  2
_D_2
 70
     0
 10
0.0
 20
0.0
 30
0.0
  3
_D_2
  1

  0
LINE
  5
179
330
176
100
AcDbEntity
  8
BASIC
 62
     0
370
    -2
100
AcDbLine
 10
13.9122037857799
 20
8.31252869100963
 30
0.0
 11
13.61277157189217
 21
8.312528691009629
 31
0.0
  0
LINE
  5
17A
330
176
100
AcDbEntity
  8
BASIC
 62
     0
370
    -2
100
AcDbLine
 10
13.77370378577986
 20
7.802278691009594
 30
0.0
 11
13.61277157189217
 21
7.802278691009593
 31
0.0
  0
LINE
  5
17B
330
176
100
AcDbEntity
  8
BASIC
 62
     0
370
    -2
100
AcDbLine
 10
13.61277157189217
 20
8.210928691009629
 30
0.0
 11
13.61277157189217
 21
7.903878691009593
 31
0.0
  0
INSERT
  5
17C
330
176
100
AcDbEntity
  8
BASIC
 62
     0
370
    -2
100
AcDbBlockReference
  2
_DOT
 10
13.61277157189217
 20
8.312528691009629
 30
0.0
 41
0.1016
 42
0.1016
 43
0.1016
 50
90.0000000000002
  0
INSERT
  5
17D
330
176
100
AcDbEntity
  8
BASIC
 62
     0
370
    -2
100
AcDbBlockReference
  2
_DOT
 10
13.61277157189217
 20
7.802278691009593
 30
0.0
 41
0.1016
 42
0.1016
 43
0.1016
 50
270.0000000000002
  0
MTEXT
  5
17E
330
176
100
AcDbEntity
  8
BASIC
 62
     0
100
AcDbMText
 10
13.23777157189217
 20
8.057403691009611
 30
0.0
 40
0.3
 41
0.0
 71
     2
 72
     1
  1
\A1;51 cm / 20"
  7
SLDTEXTSTYLE0
 11
-3.481346084076681E-15
 21
1.0
 31
0.0
 73
     1
 44
1.0
  0
POINT
  5
230
330
176
100
AcDbEntity
  8
Defpoints
 62
     0
100
AcDbPoint
 10
13.9747037857799
 20
8.31252869100963
 30
0.0
  0
POINT
  5
231
330
176
100
AcDbEntity
  8
Defpoints
 62
     0
100
AcDbPoint
 10
13.83620378577986
 20
7.802278691009594
 30
0.0
  0
POINT
  5
232
330
176
100
AcDbEntity
  8
Defpoints
 62
     0
100
AcDbPoint
 10
13.61277157189217
 20
7.802278691009593
 30
0.0
  0
ENDBLK
  5
178
330
176
100
AcDbEntity
  8
0
100
AcDbBlockEnd
  0
BLOCK
  5
181
330
180
100
AcDbEntity
  8
0
100
AcDbBlockBegin
  2
_D_3
 70
     0
 10
0.0
 20
0.0
 30
0.0
  3
_D_3
  1

  0
LINE
  5
183
330
180
100
AcDbEntity
  8
BASIC
 62
     0
370
    -2
100
AcDbLine
 10
13.91220378577986
 20
8.218528691009594
 30
0.0
 11
13.68870373577986
 21
8.218528691009592
 31
0.0
  0
LINE
  5
184
330
180
100
AcDbEntity
  8
BASIC
 62
     0
370
    -2
100
AcDbLine
 10
13.73620378577986
 20
7.802278691009593
 30
0.0
 11
13.68870373577986
 21
7.802278691009593
 31
0.0
  0
LINE
  5
185
330
180
100
AcDbEntity
  8
BASIC
 62
     0
370
    -2
100
AcDbLine
 10
13.68870373577986
 20
8.116928691009592
 30
0.0
 11
13.68870373577986
 21
7.903878691009593
 31
0.0
  0
INSERT
  5
186
330
180
100
AcDbEntity
  8
BASIC
 62
     0
370
    -2
100
AcDbBlockReference
  2
_DOT
 10
13.68870373577986
 20
8.218528691009592
 30
0.0
 41
0.1016
 42
0.1016
 43
0.1016
 50
90.00000000000024
  0
INSERT
  5
187
330
180
100
AcDbEntity
  8
BASIC
 62
     0
370
    -2
100
AcDbBlockReference
  2
_DOT
 10
13.68870373577986
 20
7.802278691009593
 30
0.0
 41
0.1016
 42
0.1016
 43
0.1016
 50
270.0000000000002
  0
MTEXT
  5
188
330
180
100
AcDbEntity
  8
BASIC
 62
     0
100
AcDbMText
 10
13.31370373577986
 20
8.010403691009591
 30
0.0
 40
0.3
 41
0.0
 71
     2
 72
     1
  1
\A1;42 cm / 17"
  7
SLDTEXTSTYLE0
 11
-4.267523938499121E-15
 21
1.0
 31
0.0
 73
     1
 44
1.0
  0
POINT
  5
233
330
180
100
AcDbEntity
  8
Defpoints
 62
     0
100
AcDbPoint
 10
13.97470378577986
 20
8.218528691009594
 30
0.0
  0
POINT
  5
234
330
180
100
AcDbEntity
  8
Defpoints
 62
     0
100
AcDbPoint
 10
13.79870378577986
 20
7.802278691009594
 30
0.0
  0
POINT
  5
235
330
180
100
AcDbEntity
  8
Defpoints
 62
     0
100
AcDbPoint
 10
13.68870373577986
 20
7.802278691009594
 30
0.0
  0
ENDBLK
  5
182
330
180
100
AcDbEntity
  8
0
100
AcDbBlockEnd
  0
BLOCK
  5
23C
330
23B
100
AcDbEntity
  8
0
100
AcDbBlockBegin
  2
_NONE
 70
     0
 10
0.0
 20
0.0
 30
0.0
  3
_NONE
  1

  0
ENDBLK
  5
23D
330
23B
100
AcDbEntity
  8
0
100
AcDbBlockEnd
  0
BLOCK
  5
2CF
330
2C8
100
AcDbEntity
  8
0
100
AcDbBlockBegin
  2
*D13
 70
     1
 10
0.0
 20
0.0
 30
0.0
  3
*D13
  1

  0
LINE
  5
2C9
330
2C8
100
AcDbEntity
  8
S&C_cotas
  6
Continuous
370
    -2
100
AcDbLine
 10
14.17070378482618
 20
8.059278697327686
 30
0.0
 11
14.26364265805748
 21
8.059278697327686
 31
0.0
  0
LINE
  5
2CA
330
2C8
100
AcDbEntity
  8
S&C_cotas
  6
Continuous
370
    -2
100
AcDbLine
 10
14.17070378482618
 20
7.802278690592361
 30
0.0
 11
14.26364265805748
 21
7.802278690592361
 31
0.0
  0
MTEXT
  5
2CB
330
2C8
100
AcDbEntity
  8
S&C_cotas
100
AcDbMText
 10
14.24564265805748
 20
7.940710539194183
 30
0.0
 40
0.02
 41
0.0
 71
     5
 72
     1
  1
\A1;26 cm / 10”^M
  7
ARIAL
 11
0.0
 21
1.0
 31
0.0
 73
   250
 44
0.0
  0
POINT
  5
2CC
330
2C8
100
AcDbEntity
  8
Defpoints
 62
     0
100
AcDbPoint
 10
14.15070378482618
 20
8.059278697327686
 30
0.0
  0
POINT
  5
2CD
330
2C8
100
AcDbEntity
  8
Defpoints
 62
     0
100
AcDbPoint
 10
14.15070378482618
 20
7.802278690592361
 30
0.0
  0
POINT
  5
2CE
330
2C8
100
AcDbEntity
  8
Defpoints
 62
     0
100
AcDbPoint
 10
14.24564265805748
 20
7.802278690592361
 30
0.0
  0
ENDBLK
  5
2D0
330
2C8
100
AcDbEntity
  8
0
100
AcDbBlockEnd
  0
BLOCK
  5
2D9
330
2D2
100
AcDbEntity
  8
0
100
AcDbBlockBegin
  2
*D14
 70
     1
 10
0.0
 20
0.0
 30
0.0
  3
*D14
  1

  0
LINE
  5
2D3
330
2D2
100
AcDbEntity
  8
S&C_cotas
  6
Continuous
370
    -2
100
AcDbLine
 10
13.77870378673353
 20
8.312681358376157
 30
0.0
 11
13.61595731095823
 21
8.312681358376157
 31
0.0
  0
LINE
  5
2D4
330
2D2
100
AcDbEntity
  8
S&C_cotas
  6
Continuous
370
    -2
100
AcDbLine
 10
13.71204373319334
 20
7.802278690592361
 30
0.0
 11
13.61595731095823
 21
7.802278690592361
 31
0.0
  0
MTEXT
  5
2D5
330
2D2
100
AcDbEntity
  8
S&C_cotas
100
AcDbMText
 10
13.63395731095823
 20
8.074344500159558
 30
0.0
 40
0.02
 41
0.0
 71
     5
 72
     1
  1
\A1;51 cm / 20”
  7
ARIAL
 11
0.0
 21
1.0
 31
0.0
 73
   250
 44
0.0
  0
POINT
  5
2D6
330
2D2
100
AcDbEntity
  8
Defpoints
 62
     0
100
AcDbPoint
 10
13.79870378673353
 20
8.312681358376157
 30
0.0
  0
POINT
  5
2D7
330
2D2
100
AcDbEntity
  8
Defpoints
 62
     0
100
AcDbPoint
 10
13.73204373319334
 20
7.802278690592361
 30
0.0
  0
POINT
  5
2D8
330
2D2
100
AcDbEntity
  8
Defpoints
 62
     0
100
AcDbPoint
 10
13.63395731095823
 20
7.802278690592361
 30
0.0
  0
ENDBLK
  5
2DA
330
2D2
100
AcDbEntity
  8
0
100
AcDbBlockEnd
  0
BLOCK
  5
325
330
31E
100
AcDbEntity
  8
0
100
AcDbBlockBegin
  2
*D19
 70
     1
 10
0.0
 20
0.0
 30
0.0
  3
*D19
  1

  0
LINE
  5
31F
330
31E
100
AcDbEntity
  8
S&C_cotas
  6
Continuous
370
    -2
100
AcDbLine
 10
13.77870378673353
 20
8.218999818730326
 30
0.0
 11
13.67933011718924
 21
8.218999818730326
 31
0.0
  0
LINE
  5
320
330
31E
100
AcDbEntity
  8
S&C_cotas
  6
Continuous
370
    -2
100
AcDbLine
 10
13.77870378673353
 20
7.802278690592361
 30
0.0
 11
13.67933011718924
 21
7.802278690592361
 31
0.0
  0
MTEXT
  5
321
330
31E
100
AcDbEntity
  8
S&C_cotas
100
AcDbMText
 10
13.69733011718924
 20
8.001328006023838
 30
0.0
 40
0.02
 41
0.0
 71
     5
 72
     1
  1
\A1;42 cm / 17”
  7
ARIAL
 11
0.0
 21
1.0
 31
0.0
 73
   250
 44
0.0
  0
POINT
  5
322
330
31E
100
AcDbEntity
  8
Defpoints
 62
     0
100
AcDbPoint
 10
13.79870378673353
 20
8.218999818730326
 30
0.0
  0
POINT
  5
323
330
31E
100
AcDbEntity
  8
Defpoints
 62
     0
100
AcDbPoint
 10
13.79870378673353
 20
7.802278690592361
 30
0.0
  0
POINT
  5
324
330
31E
100
AcDbEntity
  8
Defpoints
 62
     0
100
AcDbPoint
 10
13.69733011718924
 20
7.802278690592361
 30
0.0
  0
ENDBLK
  5
326
330
31E
100
AcDbEntity
  8
0
100
AcDbBlockEnd
  0
BLOCK
  5
395
330
38E
100
AcDbEntity
  8
0
100
AcDbBlockBegin
  2
*D25
 70
     1
 10
0.0
 20
0.0
 30
0.0
  3
*D25
  1

  0
LINE
  5
38F
330
38E
100
AcDbEntity
  8
S&C_cotas
  6
Continuous
370
    -2
100
AcDbLine
 10
13.77870378673353
 20
7.560156424476101
 30
0.0
 11
13.61716607835361
 21
7.560156424476101
 31
0.0
  0
LINE
  5
390
330
38E
100
AcDbEntity
  8
S&C_cotas
  6
Continuous
370
    -2
100
AcDbLine
 10
13.77870378673353
 20
7.206353348937825
 30
0.0
 11
13.61716607835361
 21
7.206353348937825
 31
0.0
  0
MTEXT
  5
391
330
38E
100
AcDbEntity
  8
S&C_cotas
100
AcDbMText
 10
13.63516607835361
 20
7.37541312188724
 30
0.0
 40
0.02
 41
0.0
 71
     5
 72
     1
  1
\A1;35 cm / 14”
  7
ARIAL
 11
0.0
 21
1.0
 31
0.0
 73
   250
 44
0.0
  0
POINT
  5
392
330
38E
100
AcDbEntity
  8
Defpoints
 62
     0
100
AcDbPoint
 10
13.79870378673353
 20
7.560156424476101
 30
0.0
  0
POINT
  5
393
330
38E
100
AcDbEntity
  8
Defpoints
 62
     0
100
AcDbPoint
 10
13.79870378673353
 20
7.206353348937825
 30
0.0
  0
POINT
  5
394
330
38E
100
AcDbEntity
  8
Defpoints
 62
     0
100
AcDbPoint
 10
13.63516607835361
 20
7.206353348937825
 30
0.0
  0
ENDBLK
  5
396
330
38E
100
AcDbEntity
  8
0
100
AcDbBlockEnd
  0
ENDSEC
  0
SECTION
  2
ENTITIES
  0
LWPOLYLINE
  5
97
330
1F
100
AcDbEntity
  8
0
  6
HIDDEN2
 62
     7
370
     0
100
AcDbPolyline
 90
        3
 70
   128
 43
0.0
 10
13.99982703924456
 20
8.310508654073788
 10
13.99974896088519
 20
8.310521349863125
 10
13.99967132024744
 20
8.31053401585014
  0
LWPOLYLINE
  5
98
330
1F
100
AcDbEntity
  8
0
  6
HIDDEN2
 62
     7
 48
10.0
370
     9
100
AcDbPolyline
 90
        3
 70
   128
 43
0.0
 10
14.0508901223568
 20
8.292838499502254
 10
14.05066079348602
 20
8.292965278581692
 10
14.05043140501061
 20
8.293091640428615
  0
LWPOLYLINE
  5
99
330
1F
100
AcDbEntity
  8
0
  6
Continuous
 62
     7
370
     0
100
AcDbPolyline
 90
        3
 70
   128
 43
0.0
 10
14.11797514260092
 20
8.220090434507442
 10
14.11790559888163
 20
8.22024418468864
 10
14.11783586144724
 20
8.22039808388145
  0
LWPOLYLINE
  5
9A
330
1F
100
AcDbEntity
  8
0
  6
HIDDEN2
 62
     7
 48
10.0
370
     9
100
AcDbPolyline
 90
        3
 70
   128
 43
0.0
 10
14.0992849513916
 20
8.2512288248101
 10
14.09943938702622
 20
8.251028195575786
 10
14.0995934873847
 20
8.250827298120571
  0
LINE
  5
9B
330
1F
100
AcDbEntity
  8
0
  6
HIDDEN2
 62
     7
 48
10.0
370
     9
100
AcDbLine
 10
14.09931405335941
 20
8.251191065267635
 30
0.0
 11
14.09938883483687
 21
8.251093879894329
 31
0.0
  0
LINE
  5
9C
330
1F
100
AcDbEntity
  8
0
  6
Continuous
 62
     7
370
     0
100
AcDbLine
 10
14.11784308851042
 20
8.220382169441296
 30
0.0
 11
14.11672165692129
 21
8.222676322416378
 31
0.0
  0
LINE
  5
9D
330
1F
100
AcDbEntity
  8
0
  6
HIDDEN2
 62
     7
 48
10.0
370
     9
100
AcDbLine
 10
14.10193563699999
 20
8.247577891305996
 30
0.0
 11
14.0992999270586
 21
8.251209393695904
 31
0.0
  0
SPLINE
  5
9E
330
1F
100
AcDbEntity
  8
0
  6
Continuous
 62
     7
370
     0
100
AcDbSpline
210
0.0
220
0.0
230
1.0
 70
     8
 71
     3
 72
     9
 73
     5
 74
     0
 42
0.000000001
 43
0.00000001
 40
0.0
 40
0.0
 40
0.0
 40
0.0
 40
0.8702119255134954
 40
1.0
 40
1.0
 40
1.0
 40
1.0
 10
14.11784308851042
 20
8.220382169441296
 30
0.0
 10
14.11880389339161
 20
8.218240169577806
 30
0.0
 10
14.11990799786664
 20
8.215778700364746
 30
0.0
 10
14.12085549748809
 20
8.213254096515087
 30
0.0
 10
14.12097847163954
 20
8.212926433042599
 30
0.0
  0
LINE
  5
9F
330
1F
100
AcDbEntity
  8
0
  6
Continuous
 62
     7
370
     0
100
AcDbLine
 10
14.12829565704146
 20
8.18888746257217
 30
0.0
 11
14.12860688269415
 21
8.187546656087948
 31
0.0
  0
LWPOLYLINE
  5
A0
330
1F
100
AcDbEntity
  8
0
  6
Continuous
 62
     7
370
     0
100
AcDbPolyline
 90
        3
 70
   128
 43
0.0
 10
14.12860627174654
 20
8.187549517110897
 10
14.12862236500063
 20
8.187473700002743
 10
14.12863839865008
 20
8.187397495464397
  0
SPLINE
  5
A1
330
1F
100
AcDbEntity
  8
0
  6
Continuous
 62
     7
370
     0
100
AcDbSpline
210
0.0
220
0.0
230
1.0
 70
     8
 71
     3
 72
     9
 73
     5
 74
     0
 42
0.000000001
 43
0.00000001
 40
0.0
 40
0.0
 40
0.0
 40
0.0
 40
0.2158549186963826
 40
1.0
 40
1.0
 40
1.0
 40
1.0
 10
14.13018491566458
 20
8.17872031088264
 30
0.0
 10
14.13009611259274
 20
8.179359491888935
 30
0.0
 10
14.1296847109329
 20
8.182320652144881
 30
0.0
 10
14.12908059625072
 20
8.185249788344526
 30
0.0
 10
14.12860688269415
 20
8.187546656087948
 30
0.0
  0
LINE
  5
A2
330
1F
100
AcDbEntity
  8
0
  6
HIDDEN2
 62
     7
370
     0
100
AcDbLine
 10
13.99967446439245
 20
8.310533479408337
 30
0.0
 11
14.00285344831922
 21
8.30987362618835
 31
0.0
  0
LINE
  5
A3
330
1F
100
AcDbEntity
  8
0
  6
HIDDEN2
 62
     7
 48
10.0
370
     9
100
AcDbLine
 10
14.02335963100472
 20
8.304738566831661
 30
0.0
 11
14.02529845461526
 21
8.304165974811626
 31
0.0
  0
LWPOLYLINE
  5
A4
330
1F
100
AcDbEntity
  8
0
  6
HIDDEN2
 62
     7
 48
10.0
370
     9
100
AcDbPolyline
 90
        3
 70
   128
 43
0.0
 10
14.02529152557531
 20
8.304168329195095
 10
14.02545745745578
 20
8.304112032608105
 10
14.02562310621419
 20
8.30405555720718
  0
LINE
  5
A5
330
1F
100
AcDbEntity
  8
0
  6
HIDDEN2
 62
     7
 48
10.0
370
     9
100
AcDbLine
 10
14.05044230521002
 20
8.293085650161816
 30
0.0
 11
14.04571310133019
 21
8.295538172678066
 31
0.0
  0
SPLINE
  5
A6
330
1F
100
AcDbEntity
  8
0
  6
HIDDEN2
 62
     7
 48
10.0
370
     9
100
AcDbSpline
210
0.0
220
0.0
230
1.0
 70
     8
 71
     3
 72
     9
 73
     5
 74
     0
 42
0.000000001
 43
0.00000001
 40
0.0
 40
0.0
 40
0.0
 40
0.0
 40
0.2240647355236229
 40
1.0
 40
1.0
 40
1.0
 40
1.0
 10
14.03262965083399
 20
8.30144552941711
 30
0.0
 10
14.03208968773573
 20
8.30166853782719
 30
0.0
 10
14.02967983463232
 20
8.302663823451047
 30
0.0
 10
14.02721275145384
 20
8.303509660228222
 30
0.0
 10
14.02529845461526
 20
8.304165974811626
 30
0.0
  0
SPLINE
  5
A7
330
1F
100
AcDbEntity
  8
0
  6
HIDDEN2
 62
     7
 48
10.0
370
     9
100
AcDbSpline
210
0.0
220
0.0
230
1.0
 70
     8
 71
     3
 72
     9
 73
     5
 74
     0
 42
0.000000001
 43
0.00000001
 40
0.0
 40
0.0
 40
0.0
 40
0.0
 40
0.9748080537685989
 40
0.9999999999999999
 40
0.9999999999999999
 40
0.9999999999999999
 40
0.9999999999999999
 10
14.05044230521002
 20
8.293085650161816
 30
0.0
 10
14.05228355683307
 20
8.292072675407484
 30
0.0
 10
14.05417239188723
 20
8.291033522365595
 30
0.0
 10
14.05599405746299
 20
8.289882698988789
 30
0.0
 10
14.05603994876423
 20
8.28985370750816
 30
0.0
  0
LINE
  5
A8
330
1F
100
AcDbEntity
  8
0
  6
HIDDEN2
 62
     7
 48
10.0
370
     9
100
AcDbLine
 10
14.09677558839598
 20
8.254254833416057
 30
0.0
 11
14.0992999270586
 21
8.251209393695904
 31
0.0
  0
LINE
  5
A9
330
1F
100
AcDbEntity
  8
0
  6
Continuous
 62
     7
370
     0
100
AcDbLine
 10
14.12220705747881
 20
8.200375721410824
 30
0.0
 11
14.12212027311602
 21
8.200660154775692
 31
0.0
  0
LINE
  5
AA
330
1F
100
AcDbEntity
  8
0
  6
HIDDEN2
 62
     7
 48
10.0
370
     9
100
AcDbLine
 10
13.92410898283401
 20
8.304165915206982
 30
0.0
 11
13.92411604598441
 21
8.304168329195095
 31
0.0
  0
LINE
  5
AB
330
1F
100
AcDbEntity
  8
0
  6
HIDDEN2
 62
     7
 48
10.0
370
     9
100
AcDbLine
 10
13.85001873672285
 20
8.251093879894329
 30
0.0
 11
13.85012262016811
 21
8.2512288248101
 31
0.0
  0
LWPOLYLINE
  5
AC
330
1F
100
AcDbEntity
  8
0
  6
Continuous
 62
     7
370
     0
100
AcDbPolyline
 90
        3
 70
   128
 43
0.0
 10
13.82076917290964
 20
8.187397495464397
 10
13.82078461051264
 20
8.187470838979793
 10
13.82080009281912
 20
8.187543795064999
  0
LWPOLYLINE
  5
AD
330
1F
100
AcDbEntity
  8
0
  6
HIDDEN2
 62
     7
 48
10.0
370
     9
100
AcDbPolyline
 90
        3
 70
   128
 43
0.0
 10
13.84981408417502
 20
8.250827298120571
 10
13.84995366335192
 20
8.251009300903393
 10
13.8500935182003
 20
8.251191065267635
  0
LWPOLYLINE
  5
AE
330
1F
100
AcDbEntity
  8
0
  6
HIDDEN2
 62
     7
 48
10.0
370
     9
100
AcDbPolyline
 90
        3
 70
   128
 43
0.0
 10
13.92378446534553
 20
8.30405555720718
 10
13.92394522652307
 20
8.30411036367805
 10
13.92410627827325
 20
8.304164991334988
  0
LINE
  5
AF
330
1F
100
AcDbEntity
  8
0
  6
HIDDEN2
 62
     7
 48
10.0
370
     9
100
AcDbLine
 10
13.85010764450112
 20
8.251209393695904
 30
0.0
 11
13.85263198316374
 21
8.254254833416057
 31
0.0
  0
SPLINE
  5
B0
330
1F
100
AcDbEntity
  8
0
  6
HIDDEN2
 62
     7
 48
10.0
370
     9
100
AcDbSpline
210
0.0
220
0.0
230
1.0
 70
     8
 71
     3
 72
     9
 73
     5
 74
     0
 42
0.000000001
 43
0.00000001
 40
0.0
 40
0.0
 40
0.0
 40
0.0
 40
0.025191946231401
 40
0.9999999999999999
 40
0.9999999999999999
 40
0.9999999999999999
 40
0.9999999999999999
 10
13.89336762279549
 20
8.28985370750816
 30
0.0
 10
13.89341351409672
 20
8.289882698988789
 30
0.0
 10
13.89523517967248
 20
8.291033522365598
 30
0.0
 10
13.89712401472665
 20
8.292072675407486
 30
0.0
 10
13.8989652663497
 20
8.293085650161816
 30
0.0
  0
LINE
  5
B1
330
1F
100
AcDbEntity
  8
0
  6
HIDDEN2
 62
     7
 48
10.0
370
     9
100
AcDbLine
 10
13.85010764450112
 20
8.251209393695904
 30
0.0
 11
13.84747193455973
 21
8.247577891305996
 31
0.0
  0
LINE
  5
B2
330
1F
100
AcDbEntity
  8
0
  6
Continuous
 62
     7
370
     0
100
AcDbLine
 10
13.83268591463843
 20
8.222676322416378
 30
0.0
 11
13.8315644830493
 21
8.220382169441296
 31
0.0
  0
LINE
  5
B3
330
1F
100
AcDbEntity
  8
0
  6
Continuous
 62
     7
370
     0
100
AcDbLine
 10
13.83157171011248
 20
8.22039808388145
 30
0.0
 11
13.83156425953188
 21
8.220381662801815
 31
0.0
  0
LWPOLYLINE
  5
B4
330
1F
100
AcDbEntity
  8
0
  6
Continuous
 62
     7
370
     0
100
AcDbPolyline
 90
        3
 70
   128
 43
0.0
 10
13.83155774772444
 20
8.220367327884746
 10
13.83149501383581
 20
8.220228806690288
 10
13.8314324289588
 20
8.220090434507442
  0
LINE
  5
B5
330
1F
100
AcDbEntity
  8
0
  6
Continuous
 62
     7
370
     0
100
AcDbLine
 10
13.82080068886557
 20
8.187546656087948
 30
0.0
 11
13.82111191451826
 21
8.188887522176815
 31
0.0
  0
SPLINE
  5
B6
330
1F
100
AcDbEntity
  8
0
  6
Continuous
 62
     7
370
     0
100
AcDbSpline
210
0.0
220
0.0
230
1.0
 70
     8
 71
     3
 72
     9
 73
     5
 74
     0
 42
0.000000001
 43
0.00000001
 40
0.0
 40
0.0
 40
0.0
 40
0.0
 40
0.1297880744871196
 40
1.0
 40
1.0
 40
1.0
 40
1.0
 10
13.82842909992018
 20
8.212926433042599
 30
0.0
 10
13.82855207407163
 20
8.213254096515087
 30
0.0
 10
13.82949957369308
 20
8.215778700364732
 30
0.0
 10
13.83060367816811
 20
8.2182401695778
 30
0.0
 10
13.8315644830493
 20
8.220382169441296
 30
0.0
  0
SPLINE
  5
B7
330
1F
100
AcDbEntity
  8
0
  6
HIDDEN2
 62
     7
370
     0
100
AcDbSpline
210
0.0
220
0.0
230
1.0
 70
     8
 71
     3
 72
     9
 73
     5
 74
     0
 42
0.000000001
 43
0.00000001
 40
0.0
 40
0.0
 40
0.0
 40
0.0
 40
0.8471464225162633
 40
1.0
 40
1.0
 40
1.0
 40
1.0
 10
13.82080068886557
 20
8.187546656087948
 30
0.0
 10
13.82028476699381
 20
8.185077389740474
 30
0.0
 10
13.81967575554308
 20
8.182162585071714
 30
0.0
 10
13.8192892842965
 20
8.17921192117786
 30
0.0
 10
13.81923021078386
 20
8.178760901645733
 30
0.0
  0
LWPOLYLINE
  5
B8
330
1F
100
AcDbEntity
  8
0
  6
HIDDEN2
 62
     7
370
     0
100
AcDbPolyline
 90
        3
 70
   128
 43
0.0
 10
13.94973041005709
 20
8.310533062175823
 10
13.94965569563487
 20
8.310520873025967
 10
13.94958053231516
 20
8.310508654073788
  0
SPLINE
  5
B9
330
1F
100
AcDbEntity
  8
0
  6
HIDDEN2
 62
     7
 48
10.0
370
     9
100
AcDbSpline
210
0.0
220
0.0
230
1.0
 70
     8
 71
     3
 72
     9
 73
     5
 74
     0
 42
0.000000001
 43
0.00000001
 40
0.0
 40
0.0
 40
0.0
 40
0.0
 40
0.7759352644756515
 40
1.0
 40
1.0
 40
1.0
 40
1.0
 10
13.92410911694446
 20
8.304165974811626
 30
0.0
 10
13.92219482010588
 20
8.303509660228222
 30
0.0
 10
13.91972773692739
 20
8.302663823451043
 30
0.0
 10
13.91731788382399
 20
8.30166853782719
 30
0.0
 10
13.91677792072573
 20
8.30144552941711
 30
0.0
  0
LINE
  5
BA
330
1F
100
AcDbEntity
  8
0
  6
HIDDEN2
 62
     7
 48
10.0
370
     9
100
AcDbLine
 10
13.90369447022953
 20
8.295538172678066
 30
0.0
 11
13.8989652663497
 21
8.293085650161816
 31
0.0
  0
LWPOLYLINE
  5
BB
330
1F
100
AcDbEntity
  8
0
  6
HIDDEN2
 62
     7
 48
10.0
370
     9
100
AcDbPolyline
 90
        3
 70
   128
 43
0.0
 10
13.89895874709168
 20
8.293082073883129
 10
13.89873807579556
 20
8.292960480407787
 10
13.89851744920292
 20
8.292838499502254
  0
LINE
  5
BC
330
1F
100
AcDbEntity
  8
0
  6
HIDDEN2
 62
     7
 48
10.0
370
     9
100
AcDbLine
 10
13.89897616654911
 20
8.293091640428615
 30
0.0
 11
13.89896478951254
 21
8.293085381940914
 31
0.0
  0
LINE
  5
BD
330
1F
100
AcDbEntity
  8
0
  6
Continuous
 62
     7
370
     0
100
AcDbLine
 10
13.8272872984437
 20
8.200660154775692
 30
0.0
 11
13.82720051408091
 21
8.200375721410824
 31
0.0
  0
ARC
  5
BE
330
1F
100
AcDbEntity
  8
0
  6
Continuous
 62
     7
370
     0
100
AcDbCircle
 10
14.23970378577986
 20
8.053528691009593
 30
0.0
 40
0.4000000000000002
100
AcDbArc
 50
163.9381516564332
 51
192.0690825243518
  0
ARC
  5
BF
330
1F
100
AcDbEntity
  8
0
  6
Continuous
 62
     7
370
     0
100
AcDbCircle
 10
13.70970378577986
 20
8.053528691009593
 30
0.0
 40
0.4000000000000002
100
AcDbArc
 50
347.9309174756499
 51
16.06184834356681
  0
ARC
  5
C0
330
1F
100
AcDbEntity
  8
0
  6
Continuous
 62
     7
370
     0
100
AcDbCircle
 10
14.03240953410176
 20
7.984528691009594
 30
0.0
 40
0.0700000000000001
100
AcDbArc
 50
270.0000000000014
 51
347.9309174756495
  0
ARC
  5
C1
330
1F
100
AcDbEntity
  8
0
  6
Continuous
 62
     7
370
     0
100
AcDbCircle
 10
13.91699803745796
 20
7.984528691009594
 30
0.0
 40
0.0700000000000001
100
AcDbArc
 50
192.0690825243519
 51
270.0
  0
ARC
  5
C2
330
1F
100
AcDbEntity
  8
0
  6
Continuous
 62
     7
370
     0
100
AcDbCircle
 10
14.02682177286064
 20
8.14483138686154
 30
0.0
 40
0.0700000000000002
100
AcDbArc
 50
16.06184834356733
 51
81.88435188650578
  0
ARC
  5
C3
330
1F
100
AcDbEntity
  8
0
  6
Continuous
 62
     7
370
     0
100
AcDbCircle
 10
13.92258579869908
 20
8.14483138686154
 30
0.0
 40
0.0700000000000001
100
AcDbArc
 50
98.11564811349422
 51
163.9381516564327
  0
ARC
  5
C4
330
1F
100
AcDbEntity
  8
0
  6
Continuous
 62
     7
370
     0
100
AcDbCircle
 10
13.97470378577986
 20
7.779346913422595
 30
0.0
 40
0.4391817775869989
100
AcDbArc
 50
81.88435188650593
 51
98.11564811349386
  0
ARC
  5
C5
330
1F
100
AcDbEntity
  8
0
  6
Continuous
 62
     7
370
     0
100
AcDbCircle
 10
14.03120378577986
 20
7.909528691009593
 30
0.0
 40
0.0050000000000001
100
AcDbArc
 50
90.0
 51
180.0
  0
ARC
  5
C6
330
1F
100
AcDbEntity
  8
0
  6
Continuous
 62
     7
370
     0
100
AcDbCircle
 10
13.91820378577986
 20
7.909528691009593
 30
0.0
 40
0.0050000000000001
100
AcDbArc
 50
0.0
 51
90.0
  0
LINE
  5
C7
330
1F
100
AcDbEntity
  8
0
  6
Continuous
 62
     7
370
     0
100
AcDbLine
 10
14.02620378583947
 20
7.908528691709948
 30
0.0
 11
14.02620378583947
 21
7.909528691873861
 31
0.0
  0
LINE
  5
C8
330
1F
100
AcDbEntity
  8
0
  6
Continuous
 62
     7
370
     0
100
AcDbLine
 10
13.92320378572025
 20
7.909528691873861
 30
0.0
 11
13.92320378572025
 21
7.908528691709948
 31
0.0
  0
LINE
  5
C9
330
1F
100
AcDbEntity
  8
0
  6
Continuous
 62
     7
370
     0
100
AcDbLine
 10
14.02670378685274
 20
7.906528691382123
 30
0.0
 11
14.02670378685274
 21
7.908528691709948
 31
0.0
  0
LINE
  5
CA
330
1F
100
AcDbEntity
  8
0
  6
Continuous
 62
     7
370
     0
100
AcDbLine
 10
13.92270378470698
 20
7.908528691709948
 30
0.0
 11
13.92270378470698
 21
7.906528691382123
 31
0.0
  0
LINE
  5
CB
330
1F
100
AcDbEntity
  8
0
  6
Continuous
 62
     7
370
     0
100
AcDbLine
 10
13.96770378556379
 20
7.881528691009594
 30
0.0
 11
13.96770378556379
 21
7.872942904562665
 31
0.0
  0
LINE
  5
CC
330
1F
100
AcDbEntity
  8
0
  6
Continuous
 62
     7
370
     0
100
AcDbLine
 10
13.98170378599593
 20
7.872942904562665
 30
0.0
 11
13.98170378599593
 21
7.881528691009594
 31
0.0
  0
ARC
  5
CD
330
1F
100
AcDbEntity
  8
0
  6
Continuous
 62
     7
370
     0
100
AcDbCircle
 10
13.98070378577986
 20
7.872942904571967
 30
0.0
 40
0.0010000000000003
100
AcDbArc
 50
315.0
 51
0.0
  0
LINE
  5
CE
330
1F
100
AcDbEntity
  8
0
  6
Continuous
 62
     7
370
     0
100
AcDbLine
 10
13.98070378583201
 20
7.871528691233111
 30
0.0
 11
13.98141089249679
 21
7.872235797897888
 31
0.0
  0
ARC
  5
CF
330
1F
100
AcDbEntity
  8
0
  6
Continuous
 62
     7
370
     0
100
AcDbCircle
 10
13.96870378577986
 20
7.872942904571967
 30
0.0
 40
0.0010000000000003
100
AcDbArc
 50
180.0
 51
225.0
  0
LINE
  5
D0
330
1F
100
AcDbEntity
  8
0
  6
Continuous
 62
     7
370
     0
100
AcDbLine
 10
13.96799667906293
 20
7.872235797897888
 30
0.0
 11
13.9687037857277
 21
7.871528691233111
 31
0.0
  0
LWPOLYLINE
  5
D1
330
1F
100
AcDbEntity
  8
0
  6
HIDDEN2
 62
     7
370
     0
100
AcDbPolyline
 90
        3
 70
   128
 43
0.0
 10
13.81106380820551
 20
8.050528690771175
 10
13.81425803602019
 20
8.10289117749126
 10
13.8174537837533
 20
8.155278698162151
  0
SPLINE
  5
D2
330
1F
100
AcDbEntity
  8
0
  6
HIDDEN2
 62
     7
370
     0
100
AcDbSpline
210
0.0
220
0.0
230
1.0
 70
     8
 71
     3
 72
    11
 73
     7
 74
     0
 42
0.000000001
 43
0.00000001
 40
0.0
 40
0.0
 40
0.0
 40
0.0
 40
0.2473191336026256
 40
0.4946350415453651
 40
0.747317823461839
 40
1.0
 40
1.0
 40
1.0
 40
1.0
 10
13.82410637736597
 20
8.20052869673164
 30
0.0
 10
13.82309241818529
 20
8.196882227990901
 30
0.0
 10
13.8210645130485
 20
8.189589338068496
 30
0.0
 10
13.81903004205922
 20
8.178327497659101
 30
0.0
 10
13.81769964839567
 20
8.16687735444244
 30
0.0
 10
13.81753573856864
 20
8.159144913834675
 30
0.0
 10
13.8174537837533
 20
8.155278698162151
 30
0.0
  0
SPLINE
  5
D3
330
1F
100
AcDbEntity
  8
0
  6
HIDDEN2
 62
     7
370
     0
100
AcDbSpline
210
0.0
220
0.0
230
1.0
 70
     8
 71
     3
 72
    11
 73
     7
 74
     0
 42
0.000000001
 43
0.00000001
 40
0.0
 40
0.0
 40
0.0
 40
0.0
 40
0.2472063250573778
 40
0.4944151463482668
 40
0.7472061479353125
 40
1.0
 40
1.0
 40
1.0
 40
1.0
 10
13.82045378983298
 20
8.155278698162151
 30
0.0
 10
13.82053407454818
 20
8.159063271513297
 30
0.0
 10
13.82069464478929
 20
8.166632456431357
 30
0.0
 10
13.8220138310377
 20
8.178005660251552
 30
0.0
 10
13.82407488256726
 20
8.18935592378067
 30
0.0
 10
13.82618576299014
 20
8.196804425083148
 30
0.0
 10
13.82724120915213
 20
8.20052869673164
 30
0.0
  0
LINE
  5
D4
330
1F
100
AcDbEntity
  8
0
  6
HIDDEN2
 62
     7
370
     0
100
AcDbLine
 10
13.82045378983298
 20
8.155278698162151
 30
0.0
 11
13.8204558163909
 21
8.15522052402885
 31
0.0
  0
LWPOLYLINE
  5
D5
330
1F
100
AcDbEntity
  8
0
  6
HIDDEN2
 62
     7
370
     0
100
AcDbPolyline
 90
        3
 70
   128
 43
0.0
 10
13.81406938731947
 20
8.050528690771175
 10
13.81726184189596
 20
8.102862105325771
 10
13.8204558163909
 20
8.15522052402885
  0
SPLINE
  5
D7
330
1F
100
AcDbEntity
  8
0
  6
HIDDEN2
 62
     7
370
     0
100
AcDbSpline
210
0.0
220
0.0
230
1.0
 70
     8
 71
     3
 72
    11
 73
     7
 74
     0
 42
0.000000001
 43
0.00000001
 40
0.0
 40
0.0
 40
0.0
 40
0.0
 40
0.2472065836886578
 40
0.4944156510398656
 40
0.7472067168087725
 40
1.0
 40
1.0
 40
1.0
 40
1.0
 10
14.12895378172674
 20
8.155278698162151
 30
0.0
 10
14.12887344416563
 20
8.159063272525948
 30
0.0
 10
14.12871276823627
 20
8.166632459276828
 30
0.0
 10
14.12739348024648
 20
8.178005644554387
 30
0.0
 10
14.12533273623277
 20
8.189355955305295
 30
0.0
 10
14.12322182343537
 20
8.19680443870019
 30
0.0
 10
14.12216636240759
 20
8.20052869673164
 30
0.0
  0
SPLINE
  5
D8
330
1F
100
AcDbEntity
  8
0
  6
HIDDEN2
 62
     7
370
     0
100
AcDbSpline
210
0.0
220
0.0
230
1.0
 70
     8
 71
     3
 72
    11
 73
     7
 74
     0
 42
0.000000001
 43
0.00000001
 40
0.0
 40
0.0
 40
0.0
 40
0.0
 40
0.2473191218966521
 40
0.4946350774560271
 40
0.747317847412658
 40
1.0
 40
1.0
 40
1.0
 40
1.0
 10
14.12530119419375
 20
8.20052869673164
 30
0.0
 10
14.12631515182835
 20
8.19688222769056
 30
0.0
 10
14.12834305411623
 20
8.189589336292828
 30
0.0
 10
14.13037754850206
 20
8.178327499497899
 30
0.0
 10
14.13170794071451
 20
8.166877354526656
 30
0.0
 10
14.13187183884252
 20
8.15914491380159
 30
0.0
 10
14.13195378780642
 20
8.155278698162151
 30
0.0
  0
LWPOLYLINE
  5
D9
330
1F
100
AcDbEntity
  8
0
  6
HIDDEN2
 62
     7
370
     0
100
AcDbPolyline
 90
        3
 70
   128
 43
0.0
 10
14.13195378780642
 20
8.155278698162151
 10
14.13514953553953
 20
8.10289117749126
 10
14.13834376335421
 20
8.050528690771175
  0
LWPOLYLINE
  5
DB
330
1F
100
AcDbEntity
  8
0
  6
HIDDEN2
 62
     7
370
     0
100
AcDbPolyline
 90
        3
 70
   128
 43
0.0
 10
14.12895175516882
 20
8.15522052402885
 10
14.13214572966375
 20
8.102862105325771
 10
14.13533818424025
 20
8.050528690771175
  0
LINE
  5
DC
330
1F
100
AcDbEntity
  8
0
  6
HIDDEN2
 62
     7
370
     0
100
AcDbLine
 10
14.12895175516882
 20
8.15522052402885
 30
0.0
 11
14.12895378172674
 21
8.155278698162151
 31
0.0
  0
LINE
  5
DD
330
1F
100
AcDbEntity
  8
0
  6
HIDDEN2
 62
     7
370
     0
100
AcDbLine
 10
14.13834376335421
 20
8.050528690771175
 30
0.0
 11
14.13876184523382
 21
8.043675169900967
 31
0.0
  0
LINE
  5
DE
330
1F
100
AcDbEntity
  8
0
  6
HIDDEN2
 62
     7
370
     0
100
AcDbLine
 10
14.13554660678187
 20
8.047112122730327
 30
0.0
 11
14.13533818424025
 21
8.050528690771175
 31
0.0
  0
LINE
  5
DF
330
1F
100
AcDbEntity
  8
0
  6
HIDDEN2
 62
     7
370
     0
100
AcDbLine
 10
13.81064572632589
 20
8.043675169900967
 30
0.0
 11
13.81106380820551
 21
8.050528690771175
 31
0.0
  0
LINE
  5
E0
330
1F
100
AcDbEntity
  8
0
  6
HIDDEN2
 62
     7
370
     0
100
AcDbLine
 10
13.81386096477785
 20
8.047112122730327
 30
0.0
 11
13.81406938731947
 21
8.050528690771175
 31
0.0
  0
SPLINE
  5
E1
330
1F
100
AcDbEntity
  8
0
  6
HIDDEN2
 62
     7
 48
10.0
370
     9
100
AcDbSpline
210
0.0
220
0.0
230
1.0
 70
     8
 71
     3
 72
    23
 73
    19
 74
     0
 42
0.000000001
 43
0.00000001
 40
0.0
 40
0.0
 40
0.0
 40
0.0
 40
0.0620116418006964
 40
0.125083324272579
 40
0.1890165103643589
 40
0.2536172952002339
 40
0.3186761252158289
 40
0.3827996104042736
 40
0.4469335607613188
 40
0.5108652160752901
 40
0.5743797522233838
 40
0.6385492212413697
 40
0.701879809407719
 40
0.7641677492223634
 40
0.8252649010717266
 40
0.8850132522834745
 40
0.943287564778152
 40
1.0
 40
1.0
 40
1.0
 40
1.0
 10
14.12530119419375
 20
8.20052869673164
 30
0.0
 10
14.12401438078132
 20
8.204482656464531
 30
0.0
 10
14.12141875688441
 20
8.212458165789373
 30
0.0
 10
14.11628800404748
 20
8.224062771277506
 30
0.0
 10
14.11022369767263
 20
8.235394125031215
 30
0.0
 10
14.10315685395266
 20
8.246294017301963
 30
0.0
 10
14.0952057795616
 20
8.256580747897255
 30
0.0
 10
14.08645930479604
 20
8.266158205987072
 30
0.0
 10
14.07700660484059
 20
8.274928464694854
 30
0.0
 10
14.06690475375666
 20
8.2828760014652
 30
0.0
 10
14.05618669069247
 20
8.289975173368545
 30
0.0
 10
14.04495858756682
 20
8.29615342208935
 30
0.0
 10
14.03334305277879
 20
8.301370126547951
 30
0.0
 10
14.02153840715804
 20
8.305560282008901
 30
0.0
 10
14.00967417896418
 20
8.30875397384007
 30
0.0
 10
13.99786386505286
 20
8.31095415196259
 30
0.0
 10
13.9862131286379
 20
8.312285966605888
 30
0.0
 10
13.97850533480366
 20
8.3124485150312
 30
0.0
 10
13.9747037857799
 20
8.312528685287548
 30
0.0
  0
LINE
  5
E2
330
1F
100
AcDbEntity
  8
0
  6
Continuous
 62
     7
370
     0
100
AcDbLine
 10
14.12521959543505
 20
8.188901648477627
 30
0.0
 11
14.12562367022314
 21
8.186770484403683
 31
0.0
  0
SPLINE
  5
E3
330
1F
100
AcDbEntity
  8
0
  6
HIDDEN2
 62
     7
 48
10.0
370
     9
100
AcDbSpline
210
0.0
220
0.0
230
1.0
 70
     8
 71
     3
 72
    23
 73
    19
 74
     0
 42
0.000000001
 43
0.00000001
 40
0.0
 40
0.0
 40
0.0
 40
0.0
 40
0.062084494641318
 40
0.125212445113794
 40
0.1891866794686914
 40
0.2538158278676786
 40
0.3188883578302505
 40
0.3830125001896285
 40
0.4471362920692317
 40
0.5110491623884637
 40
0.5745383203192583
 40
0.6386795549934988
 40
0.7019805608216061
 40
0.7642376733570403
 40
0.8253071177309754
 40
0.8850388575422891
 40
0.9433076782432929
 40
0.9999999999999999
 40
0.9999999999999999
 40
0.9999999999999999
 40
0.9999999999999999
 10
14.12216636240759
 20
8.20052869673164
 30
0.0
 10
14.12088609125665
 20
8.204386693247164
 30
0.0
 10
14.11830403140186
 20
8.212167527733136
 30
0.0
 10
14.11322774950275
 20
8.2234811653779
 30
0.0
 10
14.10724644176218
 20
8.23452255079003
 30
0.0
 10
14.10029170534857
 20
8.24513653059925
 30
0.0
 10
14.09248234968663
 20
8.25514883021348
 30
0.0
 10
14.08390382847961
 20
8.264465915808461
 30
0.0
 10
14.07464352084043
 20
8.272993776157895
 30
0.0
 10
14.06475739582343
 20
8.280719657397942
 30
0.0
 10
14.05427569788893
 20
8.287618242653016
 30
0.0
 10
14.04330217134873
 20
8.293621107538842
 30
0.0
 10
14.03195515859165
 20
8.298688869616301
 30
0.0
 10
14.02042742455348
 20
8.30275914452386
 30
0.0
 10
14.00884371659215
 20
8.305861808627817
 30
0.0
 10
13.99731298202725
 20
8.307998947757952
 30
0.0
 10
13.98593893007932
 20
8.309292638201642
 30
0.0
 10
13.97841443862644
 20
8.309450731467757
 30
0.0
 10
13.9747037857799
 20
8.309528694109035
 30
0.0
  0
SPLINE
  5
E4
330
1F
100
AcDbEntity
  8
0
  6
HIDDEN2
 62
     7
 48
10.0
370
     9
100
AcDbSpline
210
0.0
220
0.0
230
1.0
 70
     8
 71
     3
 72
    23
 73
    19
 74
     0
 42
0.000000001
 43
0.00000001
 40
0.0
 40
0.0
 40
0.0
 40
0.0
 40
0.0620844946412945
 40
0.1252124451137465
 40
0.1891866794686196
 40
0.2538158278675823
 40
0.3188883578301296
 40
0.3830125001894832
 40
0.4471362920690621
 40
0.5110491623882699
 40
0.5745383203190405
 40
0.6386795549932567
 40
0.7019805608213399
 40
0.7642376733567505
 40
0.8253071177306625
 40
0.8850388575419533
 40
0.9433076782429352
 40
1.0
 40
1.0
 40
1.0
 40
1.0
 10
13.82724120915213
 20
8.20052869673164
 30
0.0
 10
13.82852148030307
 20
8.204386693247164
 30
0.0
 10
13.83110354015786
 20
8.212167527733136
 30
0.0
 10
13.83617982205697
 20
8.223481165377901
 30
0.0
 10
13.84216112979754
 20
8.23452255079003
 30
0.0
 10
13.84911586621115
 20
8.24513653059925
 30
0.0
 10
13.85692522187309
 20
8.25514883021348
 30
0.0
 10
13.86550374308011
 20
8.264465915808461
 30
0.0
 10
13.87476405071929
 20
8.272993776157895
 30
0.0
 10
13.88465017573629
 20
8.280719657397942
 30
0.0
 10
13.89513187367078
 20
8.287618242653016
 30
0.0
 10
13.90610540021099
 20
8.293621107538842
 30
0.0
 10
13.91745241296807
 20
8.298688869616301
 30
0.0
 10
13.92898014700624
 20
8.30275914452386
 30
0.0
 10
13.94056385496757
 20
8.305861808627817
 30
0.0
 10
13.95209458953248
 20
8.307998947757952
 30
0.0
 10
13.96346864148042
 20
8.309292638201645
 30
0.0
 10
13.97099313293333
 20
8.30945073146776
 30
0.0
 10
13.9747037857799
 20
8.309528694109035
 30
0.0
  0
SPLINE
  5
E5
330
1F
100
AcDbEntity
  8
0
  6
HIDDEN2
 62
     7
 48
10.0
370
     9
100
AcDbSpline
210
0.0
220
0.0
230
1.0
 70
     8
 71
     3
 72
    23
 73
    19
 74
     0
 42
0.000000001
 43
0.00000001
 40
0.0
 40
0.0
 40
0.0
 40
0.0
 40
0.0620116418006734
 40
0.1250833242725325
 40
0.1890165103642886
 40
0.2536172952001396
 40
0.3186761252157104
 40
0.3827996104041312
 40
0.4469335607611525
 40
0.5108652160751
 40
0.5743797522231702
 40
0.6385492212411322
 40
0.701879809407458
 40
0.7641677492220792
 40
0.8252649010714196
 40
0.8850132522831453
 40
0.9432875647778011
 40
1.0
 40
1.0
 40
1.0
 40
1.0
 10
13.82410637736597
 20
8.20052869673164
 30
0.0
 10
13.8253931907784
 20
8.204482656464531
 30
0.0
 10
13.82798881467531
 20
8.212458165789373
 30
0.0
 10
13.83311956751224
 20
8.224062771277506
 30
0.0
 10
13.83918387388709
 20
8.235394125031215
 30
0.0
 10
13.84625071760706
 20
8.246294017301963
 30
0.0
 10
13.85420179199812
 20
8.256580747897255
 30
0.0
 10
13.86294826676368
 20
8.266158205987072
 30
0.0
 10
13.87240096671913
 20
8.274928464694854
 30
0.0
 10
13.88250281780306
 20
8.2828760014652
 30
0.0
 10
13.89322088086725
 20
8.289975173368545
 30
0.0
 10
13.90444898399289
 20
8.29615342208935
 30
0.0
 10
13.91606451878093
 20
8.301370126547951
 30
0.0
 10
13.92786916440168
 20
8.305560282008901
 30
0.0
 10
13.93973339259554
 20
8.30875397384007
 30
0.0
 10
13.95154370650686
 20
8.310954151962592
 30
0.0
 10
13.96319444292184
 20
8.312285966605891
 30
0.0
 10
13.97090223675611
 20
8.312448515031202
 30
0.0
 10
13.9747037857799
 20
8.312528685287548
 30
0.0
  0
LINE
  5
E6
330
1F
100
AcDbEntity
  8
0
  6
HIDDEN
 62
     7
370
     0
100
AcDbLine
 10
13.80997986793795
 20
8.039903686002804
 30
0.0
 11
13.82492769956865
 21
8.039903686002804
 31
0.0
  0
ARC
  5
E7
330
1F
100
AcDbEntity
  8
0
  6
HIDDEN
 62
     7
370
     0
100
AcDbCircle
 10
13.81745378577986
 20
8.040528691009593
 30
0.0
 40
0.0075000000000001
100
AcDbArc
 50
184.7801918471954
 51
355.2198081528057
  0
LINE
  5
E8
330
1F
100
AcDbEntity
  8
0
  6
HIDDEN
 62
     7
370
     0
100
AcDbLine
 10
13.82492769956865
 20
8.04115368481071
 30
0.0
 11
13.80997986793795
 21
8.04115368481071
 31
0.0
  0
ARC
  5
E9
330
1F
100
AcDbEntity
  8
0
  6
HIDDEN
 62
     7
370
     0
100
AcDbCircle
 10
13.81745378577986
 20
8.040528691009593
 30
0.0
 40
0.0075000000000002
100
AcDbArc
 50
4.780191847207814
 51
175.2198081527911
  0
ARC
  5
EA
330
1F
100
AcDbEntity
  8
0
  6
HIDDEN
 62
     7
370
     0
100
AcDbCircle
 10
13.81745378577986
 20
8.040528691009593
 30
0.0
 40
0.0075
100
AcDbArc
 50
175.2198081527911
 51
184.7801918471954
  0
ARC
  5
EB
330
1F
100
AcDbEntity
  8
0
  6
HIDDEN
 62
     7
370
     0
100
AcDbCircle
 10
13.81745378577986
 20
8.040528691009593
 30
0.0
 40
0.0075000000000002
100
AcDbArc
 50
355.2198081528057
 51
4.780191847207814
  0
ARC
  5
EC
330
1F
100
AcDbEntity
  8
0
  6
HIDDEN
 62
     7
370
     0
100
AcDbCircle
 10
14.13195378577986
 20
8.040528691009593
 30
0.0
 40
0.0075000000000002
100
AcDbArc
 50
4.780191847207814
 51
175.2198081527922
  0
LINE
  5
ED
330
1F
100
AcDbEntity
  8
0
  6
HIDDEN
 62
     7
370
     0
100
AcDbLine
 10
14.13942770362177
 20
8.04115368481071
 30
0.0
 11
14.12447987199107
 21
8.04115368481071
 31
0.0
  0
LINE
  5
EE
330
1F
100
AcDbEntity
  8
0
  6
HIDDEN
 62
     7
370
     0
100
AcDbLine
 10
14.12447987199107
 20
8.039903686002804
 30
0.0
 11
14.13942770362177
 21
8.039903686002804
 31
0.0
  0
ARC
  5
EF
330
1F
100
AcDbEntity
  8
0
  6
HIDDEN
 62
     7
370
     0
100
AcDbCircle
 10
14.13195378577986
 20
8.040528691009593
 30
0.0
 40
0.0075000000000001
100
AcDbArc
 50
184.7801918471943
 51
355.2198081528057
  0
ARC
  5
F0
330
1F
100
AcDbEntity
  8
0
  6
HIDDEN
 62
     7
370
     0
100
AcDbCircle
 10
14.13195378577986
 20
8.040528691009593
 30
0.0
 40
0.0074999999999998
100
AcDbArc
 50
355.2198081528045
 51
4.780191847208946
  0
ARC
  5
F1
330
1F
100
AcDbEntity
  8
0
  6
HIDDEN
 62
     7
370
     0
100
AcDbCircle
 10
14.13195378577986
 20
8.040528691009593
 30
0.0
 40
0.0074999999999998
100
AcDbArc
 50
175.2198081527922
 51
184.7801918471943
  0
CIRCLE
  5
F2
330
1F
100
AcDbEntity
  8
0
  6
Continuous
 62
     7
370
     0
100
AcDbCircle
 10
13.82645378577986
 20
7.900278691009594
 30
0.0
 40
0.003
  0
LINE
  5
F3
330
1F
100
AcDbEntity
  8
0
  6
Continuous
 62
     7
370
     0
100
AcDbLine
 10
13.8254537850646
 20
7.900856040970398
 30
0.0
 11
13.8254537850646
 21
7.899701340676261
 31
0.0
  0
LINE
  5
F4
330
1F
100
AcDbEntity
  8
0
  6
Continuous
 62
     7
370
     0
100
AcDbLine
 10
13.8254537850646
 20
7.899701340676261
 30
0.0
 11
13.82645378709116
 21
7.89912398959787
 31
0.0
  0
LINE
  5
F5
330
1F
100
AcDbEntity
  8
0
  6
Continuous
 62
     7
370
     0
100
AcDbLine
 10
13.82645378709116
 20
7.89912398959787
 30
0.0
 11
13.82745378911772
 21
7.899701340676261
 31
0.0
  0
LINE
  5
F6
330
1F
100
AcDbEntity
  8
0
  6
Continuous
 62
     7
370
     0
100
AcDbLine
 10
13.82745378911772
 20
7.899701340676261
 30
0.0
 11
13.82745378911772
 21
7.900856040970398
 31
0.0
  0
LINE
  5
F7
330
1F
100
AcDbEntity
  8
0
  6
Continuous
 62
     7
370
     0
100
AcDbLine
 10
13.82745378911772
 20
7.900856040970398
 30
0.0
 11
13.82645378709116
 21
7.901433392048789
 31
0.0
  0
LINE
  5
F8
330
1F
100
AcDbEntity
  8
0
  6
Continuous
 62
     7
370
     0
100
AcDbLine
 10
13.82645378709116
 20
7.901433392048789
 30
0.0
 11
13.8254537850646
 21
7.900856040970398
 31
0.0
  0
CIRCLE
  5
F9
330
1F
100
AcDbEntity
  8
0
  6
Continuous
 62
     7
370
     0
100
AcDbCircle
 10
13.80845378577986
 20
7.887778691009593
 30
0.0
 40
0.0030000000000003
  0
LINE
  5
FA
330
1F
100
AcDbEntity
  8
0
  6
Continuous
 62
     7
370
     0
100
AcDbLine
 10
13.80845378041544
 20
7.888933391396863
 30
0.0
 11
13.80745377838888
 21
7.888356041249795
 31
0.0
  0
LINE
  5
FB
330
1F
100
AcDbEntity
  8
0
  6
Continuous
 62
     7
370
     0
100
AcDbLine
 10
13.80745377838888
 20
7.888356041249795
 30
0.0
 11
13.80745377838888
 21
7.887201340955658
 31
0.0
  0
LINE
  5
FC
330
1F
100
AcDbEntity
  8
0
  6
Continuous
 62
     7
370
     0
100
AcDbLine
 10
13.80745377838888
 20
7.887201340955658
 30
0.0
 11
13.80845378041544
 21
7.886623990342928
 31
0.0
  0
LINE
  5
FD
330
1F
100
AcDbEntity
  8
0
  6
Continuous
 62
     7
370
     0
100
AcDbLine
 10
13.80845378041544
 20
7.886623990342928
 30
0.0
 11
13.809453782442
 21
7.887201340955658
 31
0.0
  0
LINE
  5
FE
330
1F
100
AcDbEntity
  8
0
  6
Continuous
 62
     7
370
     0
100
AcDbLine
 10
13.809453782442
 20
7.887201340955658
 30
0.0
 11
13.809453782442
 21
7.888356041249795
 31
0.0
  0
LINE
  5
FF
330
1F
100
AcDbEntity
  8
0
  6
Continuous
 62
     7
370
     0
100
AcDbLine
 10
13.809453782442
 20
7.888356041249795
 30
0.0
 11
13.80845378041544
 21
7.888933391396863
 31
0.0
  0
LINE
  5
100
330
1F
100
AcDbEntity
  8
0
  6
Continuous
 62
     7
370
     0
100
AcDbLine
 10
14.13995378911772
 20
7.899701340676261
 30
0.0
 11
14.14095379114428
 21
7.89912398959787
 31
0.0
  0
LINE
  5
101
330
1F
100
AcDbEntity
  8
0
  6
Continuous
 62
     7
370
     0
100
AcDbLine
 10
14.14095379114428
 20
7.89912398959787
 30
0.0
 11
14.14195379317084
 21
7.899701340676261
 31
0.0
  0
LINE
  5
102
330
1F
100
AcDbEntity
  8
0
  6
Continuous
 62
     7
370
     0
100
AcDbLine
 10
14.14195379317084
 20
7.899701340676261
 30
0.0
 11
14.14195379317084
 21
7.900856040970398
 31
0.0
  0
LINE
  5
103
330
1F
100
AcDbEntity
  8
0
  6
Continuous
 62
     7
370
     0
100
AcDbLine
 10
14.14195379317084
 20
7.900856040970398
 30
0.0
 11
14.14095379114428
 21
7.901433392048789
 31
0.0
  0
LINE
  5
104
330
1F
100
AcDbEntity
  8
0
  6
Continuous
 62
     7
370
     0
100
AcDbLine
 10
14.14095379114428
 20
7.901433392048789
 30
0.0
 11
14.13995378911772
 21
7.900856040970398
 31
0.0
  0
LINE
  5
105
330
1F
100
AcDbEntity
  8
0
  6
Continuous
 62
     7
370
     0
100
AcDbLine
 10
14.13995378911772
 20
7.900856040970398
 30
0.0
 11
14.13995378911772
 21
7.899701340676261
 31
0.0
  0
CIRCLE
  5
106
330
1F
100
AcDbEntity
  8
0
  6
Continuous
 62
     7
370
     0
100
AcDbCircle
 10
14.14095378577986
 20
7.900278691009594
 30
0.0
 40
0.0030000000000001
  0
CIRCLE
  5
107
330
1F
100
AcDbEntity
  8
0
  6
Continuous
 62
     7
370
     0
100
AcDbCircle
 10
14.12295378577986
 20
7.887778691009595
 30
0.0
 40
0.0029999999999998
  0
LINE
  5
108
330
1F
100
AcDbEntity
  8
0
  6
Continuous
 62
     7
370
     0
100
AcDbLine
 10
14.12295378446856
 20
7.886623990342928
 30
0.0
 11
14.12395378649512
 21
7.887201340955658
 31
0.0
  0
LINE
  5
109
330
1F
100
AcDbEntity
  8
0
  6
Continuous
 62
     7
370
     0
100
AcDbLine
 10
14.12395378649512
 20
7.887201340955658
 30
0.0
 11
14.12395378649512
 21
7.888356041249795
 31
0.0
  0
LINE
  5
10A
330
1F
100
AcDbEntity
  8
0
  6
Continuous
 62
     7
370
     0
100
AcDbLine
 10
14.12395378649512
 20
7.888356041249795
 30
0.0
 11
14.12295378446856
 21
7.888933391396863
 31
0.0
  0
LINE
  5
10B
330
1F
100
AcDbEntity
  8
0
  6
Continuous
 62
     7
370
     0
100
AcDbLine
 10
14.12295378446856
 20
7.888933391396863
 30
0.0
 11
14.121953782442
 21
7.888356041249795
 31
0.0
  0
LINE
  5
10C
330
1F
100
AcDbEntity
  8
0
  6
Continuous
 62
     7
370
     0
100
AcDbLine
 10
14.121953782442
 20
7.888356041249795
 30
0.0
 11
14.121953782442
 21
7.887201340955658
 31
0.0
  0
LINE
  5
10D
330
1F
100
AcDbEntity
  8
0
  6
Continuous
 62
     7
370
     0
100
AcDbLine
 10
14.121953782442
 20
7.887201340955658
 30
0.0
 11
14.12295378446856
 21
7.886623990342928
 31
0.0
  0
LINE
  5
10E
330
1F
100
AcDbEntity
  8
0
  6
Continuous
 62
     7
370
     0
100
AcDbLine
 10
14.11120378673353
 20
8.02177868838699
 30
0.0
 11
14.11120378673353
 21
8.059278697327686
 31
0.0
  0
LINE
  5
10F
330
1F
100
AcDbEntity
  8
0
  6
Continuous
 62
     7
370
     0
100
AcDbLine
 10
14.11320379078665
 20
8.02177868838699
 30
0.0
 11
14.11320379078665
 21
8.059278697327686
 31
0.0
  0
LINE
  5
110
330
1F
100
AcDbEntity
  8
0
  6
Continuous
 62
     7
370
     0
100
AcDbLine
 10
14.11320379078665
 20
8.02177868838699
 30
0.0
 11
14.11120378673353
 21
8.02177868838699
 31
0.0
  0
LINE
  5
111
330
1F
100
AcDbEntity
  8
0
  6
Continuous
 62
     7
370
     0
100
AcDbLine
 10
14.11120378673353
 20
8.059278697327686
 30
0.0
 11
14.11320379078665
 21
8.059278697327686
 31
0.0
  0
LINE
  5
112
330
1F
100
AcDbEntity
  8
0
  6
Continuous
 62
     7
370
     0
100
AcDbLine
 10
13.83820378482618
 20
8.02177868838699
 30
0.0
 11
13.83820378482618
 21
8.059278697327686
 31
0.0
  0
LINE
  5
113
330
1F
100
AcDbEntity
  8
0
  6
Continuous
 62
     7
370
     0
100
AcDbLine
 10
13.83620378077307
 20
8.02177868838699
 30
0.0
 11
13.83620378077307
 21
8.059278697327686
 31
0.0
  0
LINE
  5
114
330
1F
100
AcDbEntity
  8
0
  6
Continuous
 62
     7
370
     0
100
AcDbLine
 10
13.83620378077307
 20
8.059278697327686
 30
0.0
 11
13.83820378482618
 21
8.059278697327686
 31
0.0
  0
LINE
  5
115
330
1F
100
AcDbEntity
  8
0
  6
Continuous
 62
     7
370
     0
100
AcDbLine
 10
13.83820378482618
 20
8.02177868838699
 30
0.0
 11
13.83620378077307
 21
8.02177868838699
 31
0.0
  0
LINE
  5
116
330
1F
100
AcDbEntity
  8
0
  6
Continuous
 62
     7
370
     0
100
AcDbLine
 10
13.97670378587485
 20
7.841778692410303
 30
0.0
 11
13.97270378568486
 21
7.841778692410303
 31
0.0
  0
LINE
  5
117
330
1F
100
AcDbEntity
  8
0
  6
Continuous
 62
     7
370
     0
100
AcDbLine
 10
13.97670378587485
 20
7.841778692410303
 30
0.0
 11
13.97670378587485
 21
7.804278694645477
 31
0.0
  0
LINE
  5
118
330
1F
100
AcDbEntity
  8
0
  6
Continuous
 62
     7
370
     0
100
AcDbLine
 10
13.97870378596985
 20
7.802278690592361
 30
0.0
 11
13.97870378596985
 21
7.804278694645477
 31
0.0
  0
LINE
  5
119
330
1F
100
AcDbEntity
  8
0
  6
Continuous
 62
     7
370
     0
100
AcDbLine
 10
13.97070378558987
 20
7.802278690592361
 30
0.0
 11
13.97870378596985
 21
7.802278690592361
 31
0.0
  0
LINE
  5
11A
330
1F
100
AcDbEntity
  8
0
  6
Continuous
 62
     7
370
     0
100
AcDbLine
 10
13.97070378558987
 20
7.804278694645477
 30
0.0
 11
13.97070378558987
 21
7.802278690592361
 31
0.0
  0
LINE
  5
11B
330
1F
100
AcDbEntity
  8
0
  6
Continuous
 62
     7
370
     0
100
AcDbLine
 10
13.97270378568486
 20
7.804278694645477
 30
0.0
 11
13.97070378558987
 21
7.804278694645477
 31
0.0
  0
LINE
  5
11C
330
1F
100
AcDbEntity
  8
0
  6
Continuous
 62
     7
370
     0
100
AcDbLine
 10
13.97270378568486
 20
7.841778692410303
 30
0.0
 11
13.97270378568486
 21
7.804278694645477
 31
0.0
  0
LINE
  5
11D
330
1F
100
AcDbEntity
  8
0
  6
Continuous
 62
     7
370
     0
100
AcDbLine
 10
13.97870378596985
 20
7.804278694645477
 30
0.0
 11
13.97670378587485
 21
7.804278694645477
 31
0.0
  0
LINE
  5
11E
330
1F
100
AcDbEntity
  8
0
  6
Continuous
 62
     7
370
     0
100
AcDbLine
 10
13.97670378587485
 20
8.059278697327686
 30
0.0
 11
13.97670378587485
 21
8.02177868838699
 31
0.0
  0
LINE
  5
11F
330
1F
100
AcDbEntity
  8
0
  6
Continuous
 62
     7
370
     0
100
AcDbLine
 10
13.97270378568486
 20
8.059278697327686
 30
0.0
 11
13.97270378568486
 21
8.02177868838699
 31
0.0
  0
LINE
  5
120
330
1F
100
AcDbEntity
  8
0
  6
Continuous
 62
     7
370
     0
100
AcDbLine
 10
13.97670378587485
 20
8.02177868838699
 30
0.0
 11
13.97270378568486
 21
8.02177868838699
 31
0.0
  0
LINE
  5
121
330
1F
100
AcDbEntity
  8
0
  6
Continuous
 62
     7
370
     0
100
AcDbLine
 10
13.97670378587485
 20
8.059278697327686
 30
0.0
 11
13.97270378568486
 21
8.059278697327686
 31
0.0
  0
LINE
  5
122
330
1F
100
AcDbEntity
  8
0
  6
Continuous
 62
     7
370
     0
100
AcDbLine
 10
13.79870378673353
 20
7.802278690592361
 30
0.0
 11
13.83620378077307
 21
7.802278690592361
 31
0.0
  0
LINE
  5
123
330
1F
100
AcDbEntity
  8
0
  6
Continuous
 62
     7
370
     0
100
AcDbLine
 10
13.79870378673353
 20
7.802278690592361
 30
0.0
 11
13.79870378673353
 21
7.804278694645477
 31
0.0
  0
LINE
  5
124
330
1F
100
AcDbEntity
  8
0
  6
Continuous
 62
     7
370
     0
100
AcDbLine
 10
13.79870378673353
 20
7.804278694645477
 30
0.0
 11
13.83620378077307
 21
7.804278694645477
 31
0.0
  0
LINE
  5
125
330
1F
100
AcDbEntity
  8
0
  6
Continuous
 62
     7
370
     0
100
AcDbLine
 10
13.83620378077307
 20
7.804278694645477
 30
0.0
 11
13.83620378077307
 21
7.802278690592361
 31
0.0
  0
LINE
  5
126
330
1F
100
AcDbEntity
  8
0
  6
Continuous
 62
     7
370
     0
100
AcDbLine
 10
14.15070378482618
 20
7.802278690592361
 30
0.0
 11
14.11320379078665
 21
7.802278690592361
 31
0.0
  0
LINE
  5
127
330
1F
100
AcDbEntity
  8
0
  6
Continuous
 62
     7
370
     0
100
AcDbLine
 10
14.11320379078665
 20
7.802278690592361
 30
0.0
 11
14.11320379078665
 21
7.804278694645477
 31
0.0
  0
LINE
  5
128
330
1F
100
AcDbEntity
  8
0
  6
Continuous
 62
     7
370
     0
100
AcDbLine
 10
14.15070378482618
 20
7.804278694645477
 30
0.0
 11
14.11320379078665
 21
7.804278694645477
 31
0.0
  0
LINE
  5
129
330
1F
100
AcDbEntity
  8
0
  6
Continuous
 62
     7
370
     0
100
AcDbLine
 10
14.15070378482618
 20
7.804278694645477
 30
0.0
 11
14.15070378482618
 21
7.802278690592361
 31
0.0
  0
LINE
  5
12A
330
1F
100
AcDbEntity
  8
0
  6
Continuous
 62
     7
370
     0
100
AcDbLine
 10
14.11320379078665
 20
7.804278694645477
 30
0.0
 11
14.11320379078665
 21
8.059278697327686
 31
0.0
  0
LINE
  5
12B
330
1F
100
AcDbEntity
  8
0
  6
Continuous
 62
     7
370
     0
100
AcDbLine
 10
14.15070378482618
 20
8.059278697327686
 30
0.0
 11
14.13780998885908
 21
8.059278697327686
 31
0.0
  0
LINE
  5
12C
330
1F
100
AcDbEntity
  8
0
  6
Continuous
 62
     7
370
     0
100
AcDbLine
 10
14.13480442464628
 20
8.059278697327686
 30
0.0
 11
14.11320379078665
 21
8.059278697327686
 31
0.0
  0
CIRCLE
  5
12D
330
1F
100
AcDbEntity
  8
0
  6
Continuous
 62
     7
370
     0
100
AcDbCircle
 10
14.14095378577986
 20
7.900278691009594
 30
0.0
 40
0.0034699999999999
  0
CIRCLE
  5
12E
330
1F
100
AcDbEntity
  8
0
  6
Continuous
 62
     7
370
     0
100
AcDbCircle
 10
14.12295378577986
 20
7.887778691009594
 30
0.0
 40
0.0034700000000001
  0
LINE
  5
12F
330
1F
100
AcDbEntity
  8
0
  6
Continuous
 62
     7
370
     0
100
AcDbLine
 10
14.15070378482618
 20
7.804278694645477
 30
0.0
 11
14.15070378482618
 21
8.059278697327686
 31
0.0
  0
LINE
  5
130
330
1F
100
AcDbEntity
  8
0
  6
Continuous
 62
     7
370
     0
100
AcDbLine
 10
13.83620378077307
 20
7.804278694645477
 30
0.0
 11
13.83620378077307
 21
8.059278697327686
 31
0.0
  0
LINE
  5
131
330
1F
100
AcDbEntity
  8
0
  6
Continuous
 62
     7
370
     0
100
AcDbLine
 10
13.79870378673353
 20
7.804278694645477
 30
0.0
 11
13.79870378673353
 21
8.059278697327686
 31
0.0
  0
CIRCLE
  5
132
330
1F
100
AcDbEntity
  8
0
  6
Continuous
 62
     7
370
     0
100
AcDbCircle
 10
13.82645378577986
 20
7.900278691009594
 30
0.0
 40
0.0034699999999999
  0
CIRCLE
  5
133
330
1F
100
AcDbEntity
  8
0
  6
Continuous
 62
     7
370
     0
100
AcDbCircle
 10
13.80845378577986
 20
7.887778691009594
 30
0.0
 40
0.0034700000000001
  0
LINE
  5
134
330
1F
100
AcDbEntity
  8
0
  6
Continuous
 62
     7
370
     0
100
AcDbLine
 10
13.83620378077307
 20
8.059278697327686
 30
0.0
 11
13.81460314691344
 21
8.059278697327686
 31
0.0
  0
LINE
  5
135
330
1F
100
AcDbEntity
  8
0
  6
Continuous
 62
     7
370
     0
100
AcDbLine
 10
13.81159758270064
 20
8.059278697327686
 30
0.0
 11
13.79870378673353
 21
8.059278697327686
 31
0.0
  0
LINE
  5
136
330
1F
100
AcDbEntity
  8
0
  6
Continuous
 62
     7
370
     0
100
AcDbLine
 10
13.97670378587485
 20
7.804278694645477
 30
0.0
 11
13.97670378587485
 21
8.059278697327686
 31
0.0
  0
LINE
  5
137
330
1F
100
AcDbEntity
  8
0
  6
Continuous
 62
     7
370
     0
100
AcDbLine
 10
13.97870378596985
 20
8.059278697327686
 30
0.0
 11
13.97670378587485
 21
8.059278697327686
 31
0.0
  0
LINE
  5
138
330
1F
100
AcDbEntity
  8
0
  6
Continuous
 62
     7
370
     0
100
AcDbLine
 10
13.97870378596985
 20
7.804278694645477
 30
0.0
 11
13.97870378596985
 21
8.059278697327686
 31
0.0
  0
LINE
  5
139
330
1F
100
AcDbEntity
  8
0
  6
Continuous
 62
     7
370
     0
100
AcDbLine
 10
13.97270378568486
 20
7.804278694645477
 30
0.0
 11
13.97270378568486
 21
8.059278697327686
 31
0.0
  0
LINE
  5
13A
330
1F
100
AcDbEntity
  8
0
  6
Continuous
 62
     7
370
     0
100
AcDbLine
 10
13.97070378558987
 20
7.804278694645477
 30
0.0
 11
13.97070378558987
 21
8.059278697327686
 31
0.0
  0
LINE
  5
13B
330
1F
100
AcDbEntity
  8
0
  6
Continuous
 62
     7
370
     0
100
AcDbLine
 10
13.97270378568486
 20
8.059278697327686
 30
0.0
 11
13.97070378558987
 21
8.059278697327686
 31
0.0
  0
LINE
  5
13C
330
1F
100
AcDbEntity
  8
0
  6
Continuous
 62
     7
370
     0
100
AcDbLine
 10
14.03240953460612
 20
7.91452869083078
 30
0.0
 11
13.97870378596985
 21
7.91452869083078
 31
0.0
  0
LINE
  5
13D
330
1F
100
AcDbEntity
  8
0
  6
Continuous
 62
     7
370
     0
100
AcDbLine
 10
13.97670378587485
 20
7.91452869083078
 30
0.0
 11
13.97270378568486
 21
7.91452869083078
 31
0.0
  0
LINE
  5
13E
330
1F
100
AcDbEntity
  8
0
  6
Continuous
 62
     7
370
     0
100
AcDbLine
 10
13.97070378558987
 20
7.91452869083078
 30
0.0
 11
13.91699803695359
 21
7.91452869083078
 31
0.0
  0
LINE
  5
13F
330
1F
100
AcDbEntity
  8
0
  6
Continuous
 62
     7
370
     0
100
AcDbLine
 10
14.02666530832925
 20
7.906528691382123
 30
0.0
 11
13.97870378596985
 21
7.906528691382123
 31
0.0
  0
LINE
  5
140
330
1F
100
AcDbEntity
  8
0
  6
Continuous
 62
     7
370
     0
100
AcDbLine
 10
13.97070378558987
 20
7.906528691382123
 30
0.0
 11
13.92274226323047
 21
7.906528691382123
 31
0.0
  0
LINE
  5
141
330
1F
100
AcDbEntity
  8
0
  6
Continuous
 62
     7
370
     0
100
AcDbLine
 10
14.02670378685274
 20
7.908528691709948
 30
0.0
 11
13.97870378596985
 21
7.908528691709948
 31
0.0
  0
LINE
  5
142
330
1F
100
AcDbEntity
  8
0
  6
Continuous
 62
     7
370
     0
100
AcDbLine
 10
13.97670378587485
 20
7.908528691709948
 30
0.0
 11
13.97270378568486
 21
7.908528691709948
 31
0.0
  0
LINE
  5
143
330
1F
100
AcDbEntity
  8
0
  6
Continuous
 62
     7
370
     0
100
AcDbLine
 10
13.97070378558987
 20
7.908528691709948
 30
0.0
 11
13.92270378470698
 21
7.908528691709948
 31
0.0
  0
LINE
  5
144
330
1F
100
AcDbEntity
  8
0
  6
Continuous
 62
     7
370
     0
100
AcDbLine
 10
13.96770378556379
 20
7.881528691009594
 30
0.0
 11
13.97070378558987
 21
7.881528691009594
 31
0.0
  0
LINE
  5
145
330
1F
100
AcDbEntity
  8
0
  6
Continuous
 62
     7
370
     0
100
AcDbLine
 10
13.97870378596985
 20
7.881528691009594
 30
0.0
 11
13.98170378599593
 21
7.881528691009594
 31
0.0
  0
LINE
  5
146
330
1F
100
AcDbEntity
  8
0
  6
Continuous
 62
     7
370
     0
100
AcDbLine
 10
13.97270378568486
 20
7.879528690914599
 30
0.0
 11
13.97670378587485
 21
7.879528690914599
 31
0.0
  0
SPLINE
  5
147
330
1F
100
AcDbEntity
  8
0
  6
Continuous
 62
     7
370
     0
100
AcDbSpline
210
0.0
220
0.0
230
1.0
 70
     8
 71
     3
 72
     9
 73
     5
 74
     0
 42
0.000000001
 43
0.00000001
 40
0.0
 40
0.0
 40
0.0
 40
0.0
 40
0.152762593900316
 40
1.0
 40
1.0
 40
1.0
 40
1.0
 10
13.97670378587485
 20
7.871873214461816
 30
0.0
 10
13.97660678393835
 20
7.871836201037706
 30
0.0
 10
13.97597179906396
 20
7.871593907272159
 30
0.0
 10
13.97528536142475
 20
7.871558602638963
 30
0.0
 10
13.97470378577986
 20
7.871528691233111
 30
0.0
  0
SPLINE
  5
148
330
1F
100
AcDbEntity
  8
0
  6
Continuous
 62
     7
370
     0
100
AcDbSpline
210
0.0
220
0.0
230
1.0
 70
     8
 71
     3
 72
     9
 73
     5
 74
     0
 42
0.000000001
 43
0.00000001
 40
0.0
 40
0.0
 40
0.0
 40
0.0
 40
0.0598351963369237
 40
1.0
 40
1.0
 40
1.0
 40
1.0
 10
13.97470378577986
 20
7.871528691233111
 30
0.0
 10
13.97466319968846
 20
7.871528887305983
 30
0.0
 10
13.97398490173199
 20
7.871532164187888
 30
0.0
 10
13.97332458872935
 20
7.871715814972403
 30
0.0
 10
13.97270378568486
 20
7.871888476976169
 30
0.0
  0
LINE
  5
149
330
1F
100
AcDbEntity
  8
0
  6
Continuous
 62
     7
370
     0
100
AcDbLine
 10
13.98070378583201
 20
7.871528691233111
 30
0.0
 11
13.97870378596985
 21
7.871528691233111
 31
0.0
  0
LINE
  5
14A
330
1F
100
AcDbEntity
  8
0
  6
Continuous
 62
     7
370
     0
100
AcDbLine
 10
13.97670378587485
 20
7.871528691233111
 30
0.0
 11
13.97470378577986
 21
7.871528691233111
 31
0.0
  0
LINE
  5
14B
330
1F
100
AcDbEntity
  8
0
  6
Continuous
 62
     7
370
     0
100
AcDbLine
 10
13.97470378577986
 20
7.871528691233111
 30
0.0
 11
13.97270378568486
 21
7.871528691233111
 31
0.0
  0
LINE
  5
14C
330
1F
100
AcDbEntity
  8
0
  6
Continuous
 62
     7
370
     0
100
AcDbLine
 10
13.97070378558987
 20
7.871528691233111
 30
0.0
 11
13.9687037857277
 21
7.871528691233111
 31
0.0
  0
LINE
  5
14D
330
1F
100
AcDbEntity
  8
0
  6
Continuous
 62
     7
370
     0
100
AcDbLine
 10
14.11320379078665
 20
7.881528691009594
 30
0.0
 11
13.98170378599593
 21
7.881528691009594
 31
0.0
  0
LINE
  5
14E
330
1F
100
AcDbEntity
  8
0
  6
Continuous
 62
     7
370
     0
100
AcDbLine
 10
13.98170378599593
 20
7.881528691009594
 30
0.0
 11
13.98170378599593
 21
7.906528691382123
 31
0.0
  0
LINE
  5
14F
330
1F
100
AcDbEntity
  8
0
  6
Continuous
 62
     7
370
     0
100
AcDbLine
 10
14.02666530832925
 20
7.906528691382123
 30
0.0
 11
14.11320379078665
 21
7.906528691382123
 31
0.0
  0
LINE
  5
150
330
1F
100
AcDbEntity
  8
0
  6
Continuous
 62
     7
370
     0
100
AcDbLine
 10
13.97670378587485
 20
7.906528691382123
 30
0.0
 11
13.97670378587485
 21
7.881528691009594
 31
0.0
  0
LINE
  5
151
330
1F
100
AcDbEntity
  8
0
  6
Continuous
 62
     7
370
     0
100
AcDbLine
 10
13.97270378568486
 20
7.906528691382123
 30
0.0
 11
13.97270378568486
 21
7.881528691009594
 31
0.0
  0
LINE
  5
152
330
1F
100
AcDbEntity
  8
0
  6
Continuous
 62
     7
370
     0
100
AcDbLine
 10
13.97670378587485
 20
7.881528691009594
 30
0.0
 11
13.97270378568486
 21
7.881528691009594
 31
0.0
  0
LINE
  5
153
330
1F
100
AcDbEntity
  8
0
  6
Continuous
 62
     7
370
     0
100
AcDbLine
 10
13.97670378587485
 20
7.906528691382123
 30
0.0
 11
13.97270378568486
 21
7.906528691382123
 31
0.0
  0
LINE
  5
154
330
1F
100
AcDbEntity
  8
0
  6
Continuous
 62
     7
370
     0
100
AcDbLine
 10
13.92274226323047
 20
7.906528691382123
 30
0.0
 11
13.83620378077307
 21
7.906528691382123
 31
0.0
  0
LINE
  5
155
330
1F
100
AcDbEntity
  8
0
  6
Continuous
 62
     7
370
     0
100
AcDbLine
 10
13.83620378077307
 20
7.881528691009594
 30
0.0
 11
13.96770378556379
 21
7.881528691009594
 31
0.0
  0
LINE
  5
156
330
1F
100
AcDbEntity
  8
0
  6
Continuous
 62
     7
370
     0
100
AcDbLine
 10
13.96770378556379
 20
7.881528691009594
 30
0.0
 11
13.96770378556379
 21
7.906528691382123
 31
0.0
  0
LINE
  5
189
330
1F
100
AcDbEntity
  8
0
  6
HIDDEN2
 62
     7
370
     0
100
AcDbLine
 10
14.13895378709116
 20
7.388063377772824
 30
0.0
 11
14.13895378709116
 21
7.398063377549307
 31
0.0
  0
LINE
  5
18A
330
1F
100
AcDbEntity
  8
0
  6
Continuous
 62
     7
370
     0
100
AcDbLine
 10
14.12495378852167
 20
7.398063377549307
 30
0.0
 11
14.12495378852167
 21
7.395563378070848
 31
0.0
  0
LINE
  5
18B
330
1F
100
AcDbEntity
  8
0
  6
HIDDEN2
 62
     7
370
     0
100
AcDbLine
 10
14.13895378709116
 20
7.368063378219859
 30
0.0
 11
14.13895378709116
 21
7.378063377996342
 31
0.0
  0
LINE
  5
18C
330
1F
100
AcDbEntity
  8
0
  6
Continuous
 62
     7
370
     0
100
AcDbLine
 10
14.12495378852167
 20
7.370563377698319
 30
0.0
 11
14.12495378852167
 21
7.368063378219859
 31
0.0
  0
LINE
  5
18D
330
1F
100
AcDbEntity
  8
0
  6
Continuous
 62
     7
370
     0
100
AcDbLine
 10
13.82445378303805
 20
7.395563378070848
 30
0.0
 11
13.82445378303805
 21
7.398063377549307
 31
0.0
  0
LINE
  5
18E
330
1F
100
AcDbEntity
  8
0
  6
Continuous
 62
     7
370
     0
100
AcDbLine
 10
13.81045378446856
 20
7.398063377549307
 30
0.0
 11
13.81045378446856
 21
7.388063377772824
 31
0.0
  0
LINE
  5
18F
330
1F
100
AcDbEntity
  8
0
  6
Continuous
 62
     7
370
     0
100
AcDbLine
 10
13.82445378303805
 20
7.368063378219859
 30
0.0
 11
13.82445378303805
 21
7.370563377698319
 31
0.0
  0
LINE
  5
190
330
1F
100
AcDbEntity
  8
0
  6
Continuous
 62
     7
370
     0
100
AcDbLine
 10
13.81045378446856
 20
7.378063377996342
 30
0.0
 11
13.81045378446856
 21
7.368063378219859
 31
0.0
  0
LINE
  5
191
330
1F
100
AcDbEntity
  8
0
  6
Continuous
 62
     7
370
     0
100
AcDbLine
 10
14.12445378005781
 20
7.368063378219859
 30
0.0
 11
14.12445378005781
 21
7.36656337797399
 31
0.0
  0
LINE
  5
192
330
1F
100
AcDbEntity
  8
0
  6
Continuous
 62
     7
370
     0
100
AcDbLine
 10
14.13945378065386
 20
7.36656337797399
 30
0.0
 11
14.13945378065386
 21
7.368063378219859
 31
0.0
  0
LINE
  5
193
330
1F
100
AcDbEntity
  8
0
  6
Continuous
 62
     7
370
     0
100
AcDbLine
 10
13.80995379090586
 20
7.368063378219859
 30
0.0
 11
13.80995379090586
 21
7.36656337797399
 31
0.0
  0
LINE
  5
194
330
1F
100
AcDbEntity
  8
0
  6
Continuous
 62
     7
370
     0
100
AcDbLine
 10
13.82495379150191
 20
7.36656337797399
 30
0.0
 11
13.82495379150191
 21
7.368063378219859
 31
0.0
  0
LINE
  5
195
330
1F
100
AcDbEntity
  8
0
  6
Continuous
 62
     7
370
     0
100
AcDbLine
 10
14.13945378065386
 20
7.398063377549307
 30
0.0
 11
14.13945378065386
 21
7.399563377795176
 31
0.0
  0
LINE
  5
196
330
1F
100
AcDbEntity
  8
0
  6
Continuous
 62
     7
370
     0
100
AcDbLine
 10
14.12445378005781
 20
7.399563377795176
 30
0.0
 11
14.12445378005781
 21
7.398063377549307
 31
0.0
  0
LINE
  5
197
330
1F
100
AcDbEntity
  8
0
  6
Continuous
 62
     7
370
     0
100
AcDbLine
 10
13.82495379150191
 20
7.398063377549307
 30
0.0
 11
13.82495379150191
 21
7.399563377795176
 31
0.0
  0
LINE
  5
198
330
1F
100
AcDbEntity
  8
0
  6
Continuous
 62
     7
370
     0
100
AcDbLine
 10
13.80995379090586
 20
7.399563377795176
 30
0.0
 11
13.80995379090586
 21
7.398063377549307
 31
0.0
  0
ARC
  5
199
330
1F
100
AcDbEntity
  8
0
  6
Continuous
 62
     7
370
     0
100
AcDbCircle
 10
13.97470378577986
 20
7.383063377884583
 30
0.0
 40
0.1350000000000001
100
AcDbArc
 50
90.0
 51
174.6802547208085
  0
ARC
  5
19A
330
1F
100
AcDbEntity
  8
0
  6
Continuous
 62
     7
370
     0
100
AcDbCircle
 10
13.97470378577986
 20
7.383063377884583
 30
0.0
 40
0.1350000000000001
100
AcDbArc
 50
185.3196775725303
 51
354.6815237207287
  0
ARC
  5
19B
330
1F
100
AcDbEntity
  8
0
  6
Continuous
 62
     7
370
     0
100
AcDbCircle
 10
13.97470378577986
 20
7.383063377884583
 30
0.0
 40
0.1350000000000001
100
AcDbArc
 50
5.317827668340636
 51
90.0
  0
SPLINE
  5
19C
330
1F
100
AcDbEntity
  8
0
  6
HIDDEN2
 62
     7
370
     0
100
AcDbSpline
210
0.0
220
0.0
230
1.0
 70
    24
 71
     3
 72
    23
 73
    19
 74
     0
 42
0.000000001
 43
0.00000001
 40
0.0
 40
0.0
 40
0.0
 40
0.0
 40
0.0620116418006966
 40
0.1250833242725793
 40
0.1890165103643593
 40
0.2536172952002345
 40
0.3186761252158296
 40
0.3827996104042745
 40
0.4469335607613197
 40
0.5108652160752912
 40
0.574379752223385
 40
0.638549221241371
 40
0.7018798094077205
 40
0.7641677492223651
 40
0.8252649010717283
 40
0.8850132522834765
 40
0.943287564778154
 40
1.0
 40
1.0
 40
1.0
 40
1.0
 10
14.12530119419375
 20
7.395563378070848
 30
0.0
 10
14.12401438078132
 20
7.395563378070848
 30
0.0
 10
14.12141875688441
 20
7.395563378070848
 30
0.0
 10
14.11628800404748
 20
7.395563378070848
 30
0.0
 10
14.11022369767263
 20
7.395563378070848
 30
0.0
 10
14.10315685395266
 20
7.395563378070848
 30
0.0
 10
14.0952057795616
 20
7.395563378070848
 30
0.0
 10
14.08645930479604
 20
7.395563378070848
 30
0.0
 10
14.07700660484059
 20
7.395563378070848
 30
0.0
 10
14.06690475375666
 20
7.395563378070848
 30
0.0
 10
14.05618669069247
 20
7.395563378070848
 30
0.0
 10
14.04495858756682
 20
7.395563378070848
 30
0.0
 10
14.03334305277879
 20
7.395563378070848
 30
0.0
 10
14.02153840715804
 20
7.395563378070848
 30
0.0
 10
14.00967417896418
 20
7.395563378070848
 30
0.0
 10
13.99786386505286
 20
7.395563378070848
 30
0.0
 10
13.9862131286379
 20
7.395563378070848
 30
0.0
 10
13.97850533480366
 20
7.395563378070848
 30
0.0
 10
13.9747037857799
 20
7.395563378070848
 30
0.0
  0
SPLINE
  5
19D
330
1F
100
AcDbEntity
  8
0
  6
HIDDEN2
 62
     7
370
     0
100
AcDbSpline
210
0.0
220
0.0
230
1.0
 70
     8
 71
     3
 72
    11
 73
     7
 74
     0
 42
0.000000001
 43
0.00000001
 40
0.0
 40
0.0
 40
0.0
 40
0.0
 40
0.2473142669996019
 40
0.4946294445836513
 40
0.7473134900895501
 40
1.0
 40
1.0
 40
1.0
 40
1.0
 10
14.13195378780642
 20
7.395450756025867
 30
0.0
 10
14.13187528347529
 20
7.395433411714905
 30
0.0
 10
14.13171827452399
 20
7.395398723029122
 30
0.0
 10
14.13042535076392
 20
7.395406897132488
 30
0.0
 10
14.12840407116855
 20
7.39545609736248
 30
0.0
 10
14.12633548988111
 20
7.395527617718471
 30
0.0
 10
14.12530119419375
 20
7.395563378070848
 30
0.0
  0
SPLINE
  5
19F
330
1F
100
AcDbEntity
  8
0
  6
HIDDEN2
 62
     7
370
     0
100
AcDbSpline
210
0.0
220
0.0
230
1.0
 70
     8
 71
     3
 72
    11
 73
     7
 74
     0
 42
0.000000001
 43
0.00000001
 40
0.0
 40
0.0
 40
0.0
 40
0.0
 40
0.2473191218966521
 40
0.4946350774560271
 40
0.747317847412658
 40
1.0
 40
1.0
 40
1.0
 40
1.0
 10
14.12530119419375
 20
7.370563377698319
 30
0.0
 10
14.12631515182835
 20
7.370598464543974
 30
0.0
 10
14.12834305411623
 20
7.370668637786081
 30
0.0
 10
14.13037754850206
 20
7.370719008484381
 30
0.0
 10
14.13170794071451
 20
7.370728855847601
 30
0.0
 10
14.13187183884252
 20
7.370693618430384
 30
0.0
 10
14.13195378780642
 20
7.370675999743299
 30
0.0
  0
SPLINE
  5
1A0
330
1F
100
AcDbEntity
  8
0
  6
HIDDEN2
 62
     7
370
     0
100
AcDbSpline
210
0.0
220
0.0
230
1.0
 70
    24
 71
     3
 72
    23
 73
    19
 74
     0
 42
0.000000001
 43
0.00000001
 40
0.0
 40
0.0
 40
0.0
 40
0.0
 40
0.0620116418006965
 40
0.1250833242725792
 40
0.1890165103643591
 40
0.2536172952002342
 40
0.3186761252158292
 40
0.382799610404274
 40
0.4469335607613192
 40
0.5108652160752907
 40
0.5743797522233844
 40
0.6385492212413704
 40
0.7018798094077198
 40
0.7641677492223643
 40
0.8252649010717275
 40
0.8850132522834755
 40
0.943287564778153
 40
1.0
 40
1.0
 40
1.0
 40
1.0
 10
14.12530119419375
 20
7.370563377698319
 30
0.0
 10
14.12401438078132
 20
7.370563377698319
 30
0.0
 10
14.12141875688441
 20
7.370563377698319
 30
0.0
 10
14.11628800404748
 20
7.370563377698319
 30
0.0
 10
14.11022369767263
 20
7.370563377698319
 30
0.0
 10
14.10315685395266
 20
7.370563377698319
 30
0.0
 10
14.0952057795616
 20
7.370563377698319
 30
0.0
 10
14.08645930479604
 20
7.370563377698319
 30
0.0
 10
14.07700660484059
 20
7.370563377698319
 30
0.0
 10
14.06690475375666
 20
7.370563377698319
 30
0.0
 10
14.05618669069247
 20
7.370563377698319
 30
0.0
 10
14.04495858756682
 20
7.370563377698319
 30
0.0
 10
14.03334305277879
 20
7.370563377698319
 30
0.0
 10
14.02153840715804
 20
7.370563377698319
 30
0.0
 10
14.00967417896418
 20
7.370563377698319
 30
0.0
 10
13.99786386505286
 20
7.370563377698319
 30
0.0
 10
13.9862131286379
 20
7.370563377698319
 30
0.0
 10
13.97850533480366
 20
7.370563377698319
 30
0.0
 10
13.9747037857799
 20
7.370563377698319
 30
0.0
  0
SPLINE
  5
1A2
330
1F
100
AcDbEntity
  8
0
  6
Continuous
 62
     7
370
     0
100
AcDbSpline
210
0.0
220
0.0
230
1.0
 70
     8
 71
     3
 72
    11
 73
     7
 74
     0
 42
0.000000001
 43
0.00000001
 40
0.0
 40
0.0
 40
0.0
 40
0.0
 40
0.2473142378686192
 40
0.494629362985692
 40
0.7473135078621429
 40
1.0
 40
1.0
 40
1.0
 40
1.0
 10
13.8174537837533
 20
7.395450756025867
 30
0.0
 10
13.81753228427762
 20
7.395433411713745
 30
0.0
 10
13.81768928560788
 20
7.395398723027277
 30
0.0
 10
13.81898217696248
 20
7.395406897146476
 30
0.0
 10
13.82100351085344
 20
7.395456097340189
 30
0.0
 10
13.82307208532587
 20
7.395527617716566
 30
0.0
 10
13.82410637736597
 20
7.395563378070848
 30
0.0
  0
SPLINE
  5
1A3
330
1F
100
AcDbEntity
  8
0
  6
Continuous
 62
     7
370
     0
100
AcDbSpline
210
0.0
220
0.0
230
1.0
 70
     8
 71
     3
 72
    11
 73
     7
 74
     0
 42
0.000000001
 43
0.00000001
 40
0.0
 40
0.0
 40
0.0
 40
0.0
 40
0.2473191336026256
 40
0.4946350415453651
 40
0.747317823461839
 40
1.0
 40
1.0
 40
1.0
 40
1.0
 10
13.82410637736597
 20
7.370563377698319
 30
0.0
 10
13.82309241818529
 20
7.370598464542944
 30
0.0
 10
13.8210645130485
 20
7.370668637774574
 30
0.0
 10
13.81903004205922
 20
7.370719008491115
 30
0.0
 10
13.81769964839567
 20
7.370728855845503
 30
0.0
 10
13.81753573856864
 20
7.370693618429963
 30
0.0
 10
13.8174537837533
 20
7.370675999743299
 30
0.0
  0
SPLINE
  5
1A4
330
1F
100
AcDbEntity
  8
0
  6
HIDDEN2
 62
     7
370
     0
100
AcDbSpline
210
0.0
220
0.0
230
1.0
 70
    24
 71
     3
 72
    23
 73
    19
 74
     0
 42
0.000000001
 43
0.00000001
 40
0.0
 40
0.0
 40
0.0
 40
0.0
 40
0.0620116418006733
 40
0.1250833242725324
 40
0.1890165103642884
 40
0.2536172952001393
 40
0.31867612521571
 40
0.3827996104041308
 40
0.446933560761152
 40
0.5108652160750995
 40
0.5743797522231695
 40
0.6385492212411316
 40
0.7018798094074572
 40
0.7641677492220784
 40
0.8252649010714187
 40
0.8850132522831444
 40
0.9432875647778001
 40
1.0
 40
1.0
 40
1.0
 40
1.0
 10
13.82410637736597
 20
7.370563377698319
 30
0.0
 10
13.8253931907784
 20
7.370563377698319
 30
0.0
 10
13.82798881467531
 20
7.370563377698319
 30
0.0
 10
13.83311956751224
 20
7.370563377698319
 30
0.0
 10
13.83918387388709
 20
7.370563377698319
 30
0.0
 10
13.84625071760706
 20
7.370563377698319
 30
0.0
 10
13.85420179199812
 20
7.370563377698319
 30
0.0
 10
13.86294826676368
 20
7.370563377698319
 30
0.0
 10
13.87240096671913
 20
7.370563377698319
 30
0.0
 10
13.88250281780306
 20
7.370563377698319
 30
0.0
 10
13.89322088086725
 20
7.370563377698319
 30
0.0
 10
13.90444898399289
 20
7.370563377698319
 30
0.0
 10
13.91606451878093
 20
7.370563377698319
 30
0.0
 10
13.92786916440168
 20
7.370563377698319
 30
0.0
 10
13.93973339259554
 20
7.370563377698319
 30
0.0
 10
13.95154370650686
 20
7.370563377698319
 30
0.0
 10
13.96319444292184
 20
7.370563377698319
 30
0.0
 10
13.97090223675611
 20
7.370563377698319
 30
0.0
 10
13.9747037857799
 20
7.370563377698319
 30
0.0
  0
SPLINE
  5
1A5
330
1F
100
AcDbEntity
  8
0
  6
HIDDEN2
 62
     7
370
     0
100
AcDbSpline
210
0.0
220
0.0
230
1.0
 70
    24
 71
     3
 72
    23
 73
    19
 74
     0
 42
0.000000001
 43
0.00000001
 40
0.0
 40
0.0
 40
0.0
 40
0.0
 40
0.062011641800672
 40
0.1250833242725297
 40
0.1890165103642844
 40
0.253617295200134
 40
0.3186761252157033
 40
0.3827996104041227
 40
0.4469335607611427
 40
0.5108652160750887
 40
0.5743797522231574
 40
0.638549221241118
 40
0.7018798094074424
 40
0.7641677492220623
 40
0.8252649010714013
 40
0.8850132522831258
 40
0.9432875647777802
 40
0.9999999999999999
 40
0.9999999999999999
 40
0.9999999999999999
 40
0.9999999999999999
 10
13.82410637736597
 20
7.395563378070848
 30
0.0
 10
13.8253931907784
 20
7.395563378070848
 30
0.0
 10
13.82798881467531
 20
7.395563378070848
 30
0.0
 10
13.83311956751224
 20
7.395563378070848
 30
0.0
 10
13.83918387388709
 20
7.395563378070848
 30
0.0
 10
13.84625071760706
 20
7.395563378070848
 30
0.0
 10
13.85420179199812
 20
7.395563378070848
 30
0.0
 10
13.86294826676368
 20
7.395563378070848
 30
0.0
 10
13.87240096671913
 20
7.395563378070848
 30
0.0
 10
13.88250281780306
 20
7.395563378070848
 30
0.0
 10
13.89322088086725
 20
7.395563378070848
 30
0.0
 10
13.90444898399289
 20
7.395563378070848
 30
0.0
 10
13.91606451878093
 20
7.395563378070848
 30
0.0
 10
13.92786916440168
 20
7.395563378070848
 30
0.0
 10
13.93973339259554
 20
7.395563378070848
 30
0.0
 10
13.95154370650686
 20
7.395563378070848
 30
0.0
 10
13.96319444292184
 20
7.395563378070848
 30
0.0
 10
13.97090223675611
 20
7.395563378070848
 30
0.0
 10
13.9747037857799
 20
7.395563378070848
 30
0.0
  0
ELLIPSE
  5
1A6
330
1F
100
AcDbEntity
  8
0
  6
HIDDEN2
 62
     7
370
     0
100
AcDbEllipse
 10
14.13098890849334
 20
10.13083910905514
 30
0.0
 11
2.877698079828406E-14
 21
2.735434082809671
 31
0.0
210
0.0
220
0.0
230
1.0
 40
0.0610021786492381
 41
3.147374983992691
 42
3.185682974757599
  0
LINE
  5
1A7
330
1F
100
AcDbEntity
  8
0
  6
HIDDEN2
 62
     7
370
     0
100
AcDbLine
 10
14.12895175788339
 20
7.395451093220127
 30
0.0
 11
14.1289537857799
 21
7.395450756209035
 31
0.0
  0
ELLIPSE
  5
1A8
330
1F
100
AcDbEntity
  8
0
  6
HIDDEN2
 62
     7
370
     0
100
AcDbEllipse
 10
14.12798333177793
 20
10.13083910905514
 30
0.0
 11
2.842170943040401E-14
 21
2.735434082809671
 31
0.0
210
0.0
220
0.0
230
1.0
 40
0.0610021786492428
 41
3.147396251643665
 42
3.185682974757603
  0
LINE
  5
1A9
330
1F
100
AcDbEntity
  8
0
  6
Continuous
 62
     7
370
     0
100
AcDbLine
 10
14.13533818424025
 20
7.398063377549307
 30
0.0
 11
14.13834376335421
 21
7.398063377549307
 31
0.0
  0
ELLIPSE
  5
1AA
330
1F
100
AcDbEntity
  8
0
  6
HIDDEN2
 62
     7
370
     0
100
AcDbEllipse
 10
14.13098890849328
 20
4.635287646714024
 30
0.0
 11
2.842170943040401E-14
 21
2.735434082809671
 31
0.0
210
0.0
220
0.0
230
1.0
 40
0.0610021786492378
 41
6.239094986012232
 42
6.277402976777148
  0
LINE
  5
1AB
330
1F
100
AcDbEntity
  8
0
  6
Continuous
 62
     7
370
     0
100
AcDbLine
 10
14.13533818424025
 20
7.368063378219859
 30
0.0
 11
14.13834376335421
 21
7.368063378219859
 31
0.0
  0
ELLIPSE
  5
1AC
330
1F
100
AcDbEntity
  8
0
  6
HIDDEN2
 62
     7
370
     0
100
AcDbEllipse
 10
14.12798333177787
 20
4.635287646714024
 30
0.0
 11
2.842170943040401E-14
 21
2.735434082809671
 31
0.0
210
0.0
220
0.0
230
1.0
 40
0.0610021786492428
 41
6.239094986012236
 42
6.277381709126167
  0
LINE
  5
1AD
330
1F
100
AcDbEntity
  8
0
  6
HIDDEN2
 62
     7
370
     0
100
AcDbLine
 10
14.1289537857799
 20
7.370675999560123
 30
0.0
 11
14.12895175788339
 21
7.370675662549031
 31
0.0
  0
ELLIPSE
  5
1AE
330
1F
100
AcDbEntity
  8
0
  6
HIDDEN
 62
     7
370
     0
100
AcDbEllipse
 10
13.81841866306696
 20
10.13083910905517
 30
0.0
 11
4.661160346586258E-13
 21
2.73543408280967
 31
0.0
210
0.0
220
0.0
230
1.0
 40
0.061002178649237
 41
3.097502332422216
 42
3.135810323187131
  0
LINE
  5
1AF
330
1F
100
AcDbEntity
  8
0
  6
Continuous
 62
     7
370
     0
100
AcDbLine
 10
13.81406938731947
 20
7.398063377549307
 30
0.0
 11
13.81106380820551
 21
7.398063377549307
 31
0.0
  0
ELLIPSE
  5
1B0
330
1F
100
AcDbEntity
  8
0
  6
HIDDEN
 62
     7
370
     0
100
AcDbEllipse
 10
13.82142423978237
 20
10.13083910905517
 30
0.0
 11
4.659383989746857E-13
 21
2.73543408280967
 31
0.0
210
0.0
220
0.0
230
1.0
 40
0.0610021786492417
 41
3.097502332422219
 42
3.13578905553615
  0
LINE
  5
1B1
330
1F
100
AcDbEntity
  8
0
  6
Continuous
 62
     7
370
     0
100
AcDbLine
 10
13.82045378577994
 20
7.395450756209073
 30
0.0
 11
13.82045581367645
 21
7.395451093220165
 31
0.0
  0
ELLIPSE
  5
1B2
330
1F
100
AcDbEntity
  8
0
  6
HIDDEN
 62
     7
370
     0
100
AcDbEllipse
 10
13.81841866306602
 20
4.635287646714052
 30
0.0
 11
4.655831276068058E-13
 21
2.735434082809671
 31
0.0
210
0.0
220
0.0
230
1.0
 40
0.0610021786492368
 41
0.0057823304026668
 42
0.0440903211675748
  0
LINE
  5
1B3
330
1F
100
AcDbEntity
  8
0
  6
Continuous
 62
     7
370
     0
100
AcDbLine
 10
13.82045581367637
 20
7.370675662549067
 30
0.0
 11
13.82045378577986
 21
7.37067599956016
 31
0.0
  0
ELLIPSE
  5
1B4
330
1F
100
AcDbEntity
  8
0
  6
HIDDEN
 62
     7
370
     0
100
AcDbEllipse
 10
13.82142423978143
 20
4.635287646714049
 30
0.0
 11
4.657607632907457E-13
 21
2.735434082809671
 31
0.0
210
0.0
220
0.0
230
1.0
 40
0.0610021786492416
 41
0.0058035980536413
 42
0.0440903211675756
  0
LINE
  5
1B5
330
1F
100
AcDbEntity
  8
0
  6
Continuous
 62
     7
370
     0
100
AcDbLine
 10
13.81406938731947
 20
7.368063378219859
 30
0.0
 11
13.81106380820551
 21
7.368063378219859
 31
0.0
  0
LINE
  5
1B6
330
1F
100
AcDbEntity
  8
0
  6
HIDDEN2
 62
     7
370
     0
100
AcDbLine
 10
14.13773373961725
 20
7.378063377996342
 30
0.0
 11
14.13890188634672
 21
7.378063377996342
 31
0.0
  0
LINE
  5
1B7
330
1F
100
AcDbEntity
  8
0
  6
HIDDEN2
 62
     7
370
     0
100
AcDbLine
 10
14.13890188634672
 20
7.368063378219859
 30
0.0
 11
14.13890188634672
 21
7.378063377996342
 31
0.0
  0
LINE
  5
1B8
330
1F
100
AcDbEntity
  8
0
  6
Continuous
 62
     7
370
     0
100
AcDbLine
 10
14.13834376335421
 20
7.368063378219859
 30
0.0
 11
14.13876184523382
 21
7.368063378219859
 31
0.0
  0
LINE
  5
1B9
330
1F
100
AcDbEntity
  8
0
  6
Continuous
 62
     7
370
     0
100
AcDbLine
 10
14.13876184523382
 20
7.398063377549307
 30
0.0
 11
14.13834376335421
 21
7.398063377549307
 31
0.0
  0
LINE
  5
1BA
330
1F
100
AcDbEntity
  8
0
  6
HIDDEN2
 62
     7
370
     0
100
AcDbLine
 10
14.13890188634672
 20
7.388063377772824
 30
0.0
 11
14.13890188634672
 21
7.398063377549307
 31
0.0
  0
LINE
  5
1BB
330
1F
100
AcDbEntity
  8
0
  6
HIDDEN2
 62
     7
370
     0
100
AcDbLine
 10
14.13773373961725
 20
7.388063377772824
 30
0.0
 11
14.13890188634672
 21
7.388063377772824
 31
0.0
  0
LINE
  5
1BC
330
1F
100
AcDbEntity
  8
0
  6
HIDDEN2
 62
     7
370
     0
100
AcDbLine
 10
14.13773373961725
 20
7.388063377772824
 30
0.0
 11
14.13773373961725
 21
7.378063377996342
 31
0.0
  0
LINE
  5
1BD
330
1F
100
AcDbEntity
  8
0
  6
Continuous
 62
     7
370
     0
100
AcDbLine
 10
13.81106380820551
 20
7.398063377549307
 30
0.0
 11
13.81064572632589
 21
7.398063377549307
 31
0.0
  0
LINE
  5
1BE
330
1F
100
AcDbEntity
  8
0
  6
Continuous
 62
     7
370
     0
100
AcDbLine
 10
13.81064572632589
 20
7.368063378219859
 30
0.0
 11
13.81106380820551
 21
7.368063378219859
 31
0.0
  0
LINE
  5
1BF
330
1F
100
AcDbEntity
  8
0
  6
HIDDEN
 62
     7
370
     0
100
AcDbLine
 10
13.81050568521299
 20
7.378063377996342
 30
0.0
 11
13.81050568521299
 21
7.368063378219859
 31
0.0
  0
LINE
  5
1C0
330
1F
100
AcDbEntity
  8
0
  6
Continuous
 62
     7
370
     0
100
AcDbLine
 10
13.81050568521299
 20
7.378063377996342
 30
0.0
 11
13.81167383194246
 21
7.378063377996342
 31
0.0
  0
LINE
  5
1C1
330
1F
100
AcDbEntity
  8
0
  6
Continuous
 62
     7
370
     0
100
AcDbLine
 10
13.81167383194246
 20
7.378063377996342
 30
0.0
 11
13.81167383194246
 21
7.388063377772824
 31
0.0
  0
LINE
  5
1C2
330
1F
100
AcDbEntity
  8
0
  6
Continuous
 62
     7
370
     0
100
AcDbLine
 10
13.81050568521299
 20
7.388063377772824
 30
0.0
 11
13.81167383194246
 21
7.388063377772824
 31
0.0
  0
LINE
  5
1C3
330
1F
100
AcDbEntity
  8
0
  6
Continuous
 62
     7
370
     0
100
AcDbLine
 10
13.81050568521299
 20
7.398063377549307
 30
0.0
 11
13.81050568521299
 21
7.388063377772824
 31
0.0
  0
LINE
  5
1C4
330
1F
100
AcDbEntity
  8
0
  6
Continuous
 62
     7
370
     0
100
AcDbLine
 10
14.13890188634672
 20
7.388063377772824
 30
0.0
 11
14.13895378709116
 21
7.388063377772824
 31
0.0
  0
LINE
  5
1C5
330
1F
100
AcDbEntity
  8
0
  6
Continuous
 62
     7
370
     0
100
AcDbLine
 10
14.13890188634672
 20
7.378063377996342
 30
0.0
 11
14.13895378709116
 21
7.378063377996342
 31
0.0
  0
LINE
  5
1C6
330
1F
100
AcDbEntity
  8
0
  6
Continuous
 62
     7
370
     0
100
AcDbLine
 10
13.81045378446856
 20
7.388063377772824
 30
0.0
 11
13.81050568521299
 21
7.388063377772824
 31
0.0
  0
LINE
  5
1C7
330
1F
100
AcDbEntity
  8
0
  6
Continuous
 62
     7
370
     0
100
AcDbLine
 10
13.81045378446856
 20
7.378063377996342
 30
0.0
 11
13.81050568521299
 21
7.378063377996342
 31
0.0
  0
LINE
  5
1C8
330
1F
100
AcDbEntity
  8
0
  6
HIDDEN
 62
     7
370
     0
100
AcDbLine
 10
14.12445378005781
 20
7.368063378219859
 30
0.0
 11
14.13533818424025
 21
7.368063378219859
 31
0.0
  0
LINE
  5
1C9
330
1F
100
AcDbEntity
  8
0
  6
HIDDEN
 62
     7
370
     0
100
AcDbLine
 10
14.13876184523382
 20
7.368063378219859
 30
0.0
 11
14.13945378065386
 21
7.368063378219859
 31
0.0
  0
LINE
  5
1CA
330
1F
100
AcDbEntity
  8
0
  6
Continuous
 62
     7
370
     0
100
AcDbLine
 10
14.13942770362177
 20
7.36656337797399
 30
0.0
 11
14.13945378065386
 21
7.36656337797399
 31
0.0
  0
LINE
  5
1CB
330
1F
100
AcDbEntity
  8
0
  6
Continuous
 62
     7
370
     0
100
AcDbLine
 10
14.13942770362177
 20
7.36656337797399
 30
0.0
 11
14.13942770362177
 21
7.365563377810077
 31
0.0
  0
LINE
  5
1CC
330
1F
100
AcDbEntity
  8
0
  6
HIDDEN
 62
     7
370
     0
100
AcDbLine
 10
14.12447987199107
 20
7.365563377810077
 30
0.0
 11
14.13942770362177
 21
7.365563377810077
 31
0.0
  0
LINE
  5
1CD
330
1F
100
AcDbEntity
  8
0
  6
Continuous
 62
     7
370
     0
100
AcDbLine
 10
14.12447987199107
 20
7.365563377810077
 30
0.0
 11
14.12447987199107
 21
7.36656337797399
 31
0.0
  0
LINE
  5
1CE
330
1F
100
AcDbEntity
  8
0
  6
Continuous
 62
     7
370
     0
100
AcDbLine
 10
14.12445378005781
 20
7.36656337797399
 30
0.0
 11
14.12447987199107
 21
7.36656337797399
 31
0.0
  0
LINE
  5
1CF
330
1F
100
AcDbEntity
  8
0
  6
HIDDEN
 62
     7
370
     0
100
AcDbLine
 10
13.80995379090586
 20
7.368063378219859
 30
0.0
 11
13.81064572632589
 21
7.368063378219859
 31
0.0
  0
LINE
  5
1D0
330
1F
100
AcDbEntity
  8
0
  6
HIDDEN
 62
     7
370
     0
100
AcDbLine
 10
13.81406938731947
 20
7.368063378219859
 30
0.0
 11
13.82495379150191
 21
7.368063378219859
 31
0.0
  0
LINE
  5
1D1
330
1F
100
AcDbEntity
  8
0
  6
Continuous
 62
     7
370
     0
100
AcDbLine
 10
13.80995379090586
 20
7.36656337797399
 30
0.0
 11
13.80997986793795
 21
7.36656337797399
 31
0.0
  0
LINE
  5
1D2
330
1F
100
AcDbEntity
  8
0
  6
Continuous
 62
     7
370
     0
100
AcDbLine
 10
13.82492769956865
 20
7.36656337797399
 30
0.0
 11
13.82495379150191
 21
7.36656337797399
 31
0.0
  0
LINE
  5
1D3
330
1F
100
AcDbEntity
  8
0
  6
Continuous
 62
     7
370
     0
100
AcDbLine
 10
13.82492769956865
 20
7.36656337797399
 30
0.0
 11
13.82492769956865
 21
7.365563377810077
 31
0.0
  0
LINE
  5
1D4
330
1F
100
AcDbEntity
  8
0
  6
Continuous
 62
     7
370
     0
100
AcDbLine
 10
13.80997986793795
 20
7.365563377810077
 30
0.0
 11
13.80997986793795
 21
7.36656337797399
 31
0.0
  0
LINE
  5
1D5
330
1F
100
AcDbEntity
  8
0
  6
HIDDEN
 62
     7
370
     0
100
AcDbLine
 10
13.80997986793795
 20
7.365563377810077
 30
0.0
 11
13.82492769956865
 21
7.365563377810077
 31
0.0
  0
LINE
  5
1D6
330
1F
100
AcDbEntity
  8
0
  6
HIDDEN
 62
     7
370
     0
100
AcDbLine
 10
14.13945378065386
 20
7.398063377549307
 30
0.0
 11
14.13876184523382
 21
7.398063377549307
 31
0.0
  0
LINE
  5
1D7
330
1F
100
AcDbEntity
  8
0
  6
HIDDEN
 62
     7
370
     0
100
AcDbLine
 10
14.13533818424025
 20
7.398063377549307
 30
0.0
 11
14.12445378005781
 21
7.398063377549307
 31
0.0
  0
LINE
  5
1D8
330
1F
100
AcDbEntity
  8
0
  6
Continuous
 62
     7
370
     0
100
AcDbLine
 10
14.13945378065386
 20
7.399563377795176
 30
0.0
 11
14.13942770362177
 21
7.399563377795176
 31
0.0
  0
LINE
  5
1D9
330
1F
100
AcDbEntity
  8
0
  6
Continuous
 62
     7
370
     0
100
AcDbLine
 10
14.12447987199107
 20
7.399563377795176
 30
0.0
 11
14.12445378005781
 21
7.399563377795176
 31
0.0
  0
LINE
  5
1DA
330
1F
100
AcDbEntity
  8
0
  6
Continuous
 62
     7
370
     0
100
AcDbLine
 10
14.12447987199107
 20
7.399563377795176
 30
0.0
 11
14.12447987199107
 21
7.400563377959089
 31
0.0
  0
LINE
  5
1DB
330
1F
100
AcDbEntity
  8
0
  6
HIDDEN
 62
     7
370
     0
100
AcDbLine
 10
14.13942770362177
 20
7.400563377959089
 30
0.0
 11
14.12447987199107
 21
7.400563377959089
 31
0.0
  0
LINE
  5
1DC
330
1F
100
AcDbEntity
  8
0
  6
Continuous
 62
     7
370
     0
100
AcDbLine
 10
14.13942770362177
 20
7.400563377959089
 30
0.0
 11
14.13942770362177
 21
7.399563377795176
 31
0.0
  0
LINE
  5
1DD
330
1F
100
AcDbEntity
  8
0
  6
Continuous
 62
     7
370
     0
100
AcDbLine
 10
13.80997986793795
 20
7.399563377795176
 30
0.0
 11
13.80995379090586
 21
7.399563377795176
 31
0.0
  0
LINE
  5
1DE
330
1F
100
AcDbEntity
  8
0
  6
Continuous
 62
     7
370
     0
100
AcDbLine
 10
13.80997986793795
 20
7.399563377795176
 30
0.0
 11
13.80997986793795
 21
7.400563377959089
 31
0.0
  0
LINE
  5
1DF
330
1F
100
AcDbEntity
  8
0
  6
Continuous
 62
     7
370
     0
100
AcDbLine
 10
13.82492769956865
 20
7.400563377959089
 30
0.0
 11
13.80997986793795
 21
7.400563377959089
 31
0.0
  0
LINE
  5
1E0
330
1F
100
AcDbEntity
  8
0
  6
Continuous
 62
     7
370
     0
100
AcDbLine
 10
13.82492769956865
 20
7.400563377959089
 30
0.0
 11
13.82492769956865
 21
7.399563377795176
 31
0.0
  0
LINE
  5
1E1
330
1F
100
AcDbEntity
  8
0
  6
Continuous
 62
     7
370
     0
100
AcDbLine
 10
13.82495379150191
 20
7.399563377795176
 30
0.0
 11
13.82492769956865
 21
7.399563377795176
 31
0.0
  0
LINE
  5
1E2
330
1F
100
AcDbEntity
  8
0
  6
Continuous
 62
     7
370
     0
100
AcDbLine
 10
13.82495379150191
 20
7.398063377549307
 30
0.0
 11
13.81406938731947
 21
7.398063377549307
 31
0.0
  0
LINE
  5
1E3
330
1F
100
AcDbEntity
  8
0
  6
Continuous
 62
     7
370
     0
100
AcDbLine
 10
13.81064572632589
 20
7.398063377549307
 30
0.0
 11
13.80995379090586
 21
7.398063377549307
 31
0.0
  0
LINE
  5
1E4
330
1F
100
AcDbEntity
  8
0
  6
Continuous
 62
     7
370
     0
100
AcDbLine
 10
13.81167383194246
 20
7.381063377789588
 30
0.0
 11
13.79870378673353
 21
7.381063377789588
 31
0.0
  0
LINE
  5
1E5
330
1F
100
AcDbEntity
  8
0
  6
Continuous
 62
     7
370
     0
100
AcDbLine
 10
13.79870378673353
 20
7.381063377789588
 30
0.0
 11
13.79870378673353
 21
7.385063377979578
 31
0.0
  0
LINE
  5
1E6
330
1F
100
AcDbEntity
  8
0
  6
Continuous
 62
     7
370
     0
100
AcDbLine
 10
13.81167383194246
 20
7.385063377979578
 30
0.0
 11
13.79870378673353
 21
7.385063377979578
 31
0.0
  0
LINE
  5
1E7
330
1F
100
AcDbEntity
  8
0
  6
Continuous
 62
     7
370
     0
100
AcDbLine
 10
14.13773373961725
 20
7.385063377979578
 30
0.0
 11
14.15070378482618
 21
7.385063377979578
 31
0.0
  0
LINE
  5
1E8
330
1F
100
AcDbEntity
  8
0
  6
Continuous
 62
     7
370
     0
100
AcDbLine
 10
14.15070378482618
 20
7.385063377979578
 30
0.0
 11
14.15070378482618
 21
7.381063377789588
 31
0.0
  0
LINE
  5
1E9
330
1F
100
AcDbEntity
  8
0
  6
Continuous
 62
     7
370
     0
100
AcDbLine
 10
14.13773373961725
 20
7.381063377789588
 30
0.0
 11
14.15070378482618
 21
7.381063377789588
 31
0.0
  0
LINE
  5
1EA
330
1F
100
AcDbEntity
  8
0
  6
Continuous
 62
     7
370
     0
100
AcDbLine
 10
13.97870378596985
 20
7.521563382891373
 30
0.0
 11
13.97670378587485
 21
7.521563382891373
 31
0.0
  0
LINE
  5
1EB
330
1F
100
AcDbEntity
  8
0
  6
Continuous
 62
     7
370
     0
100
AcDbLine
 10
13.97870378596985
 20
7.519563378838257
 30
0.0
 11
13.97870378596985
 21
7.521563382891373
 31
0.0
  0
LINE
  5
1EC
330
1F
100
AcDbEntity
  8
0
  6
Continuous
 62
     7
370
     0
100
AcDbLine
 10
13.97070378558987
 20
7.519563378838257
 30
0.0
 11
13.97870378596985
 21
7.519563378838257
 31
0.0
  0
LINE
  5
1ED
330
1F
100
AcDbEntity
  8
0
  6
Continuous
 62
     7
370
     0
100
AcDbLine
 10
13.97070378558987
 20
7.521563382891373
 30
0.0
 11
13.97070378558987
 21
7.519563378838257
 31
0.0
  0
LINE
  5
1EE
330
1F
100
AcDbEntity
  8
0
  6
Continuous
 62
     7
370
     0
100
AcDbLine
 10
13.97270378568486
 20
7.521563382891373
 30
0.0
 11
13.97070378558987
 21
7.521563382891373
 31
0.0
  0
LINE
  5
1EF
330
1F
100
AcDbEntity
  8
0
  6
Continuous
 62
     7
370
     0
100
AcDbLine
 10
13.97270378568486
 20
7.521563382891373
 30
0.0
 11
13.97270378568486
 21
7.559063376930909
 31
0.0
  0
LINE
  5
1F0
330
1F
100
AcDbEntity
  8
0
  6
Continuous
 62
     7
370
     0
100
AcDbLine
 10
13.97270378568486
 20
7.559063376930909
 30
0.0
 11
13.97670378587485
 21
7.559063376930909
 31
0.0
  0
LINE
  5
1F1
330
1F
100
AcDbEntity
  8
0
  6
Continuous
 62
     7
370
     0
100
AcDbLine
 10
13.97670378587485
 20
7.521563382891373
 30
0.0
 11
13.97670378587485
 21
7.559063376930909
 31
0.0
  0
LINE
  5
1F2
330
1F
100
AcDbEntity
  8
0
  6
Continuous
 62
     7
370
     0
100
AcDbLine
 10
13.97070378558987
 20
7.244563372877793
 30
0.0
 11
13.97270378568486
 21
7.244563372877793
 31
0.0
  0
LINE
  5
1F3
330
1F
100
AcDbEntity
  8
0
  6
Continuous
 62
     7
370
     0
100
AcDbLine
 10
13.97070378558987
 20
7.246563376930909
 30
0.0
 11
13.97070378558987
 21
7.244563372877793
 31
0.0
  0
LINE
  5
1F4
330
1F
100
AcDbEntity
  8
0
  6
Continuous
 62
     7
370
     0
100
AcDbLine
 10
13.97870378596985
 20
7.246563376930909
 30
0.0
 11
13.97070378558987
 21
7.246563376930909
 31
0.0
  0
LINE
  5
1F5
330
1F
100
AcDbEntity
  8
0
  6
Continuous
 62
     7
370
     0
100
AcDbLine
 10
13.97870378596985
 20
7.244563372877793
 30
0.0
 11
13.97870378596985
 21
7.246563376930909
 31
0.0
  0
LINE
  5
1F6
330
1F
100
AcDbEntity
  8
0
  6
Continuous
 62
     7
370
     0
100
AcDbLine
 10
13.97670378587485
 20
7.244563372877793
 30
0.0
 11
13.97870378596985
 21
7.244563372877793
 31
0.0
  0
LINE
  5
1F7
330
1F
100
AcDbEntity
  8
0
  6
Continuous
 62
     7
370
     0
100
AcDbLine
 10
13.97670378587485
 20
7.244563372877793
 30
0.0
 11
13.97670378587485
 21
7.207063378838257
 31
0.0
  0
LINE
  5
1F8
330
1F
100
AcDbEntity
  8
0
  6
Continuous
 62
     7
370
     0
100
AcDbLine
 10
13.97670378587485
 20
7.207063378838257
 30
0.0
 11
13.97270378568486
 21
7.207063378838257
 31
0.0
  0
LINE
  5
1F9
330
1F
100
AcDbEntity
  8
0
  6
Continuous
 62
     7
370
     0
100
AcDbLine
 10
13.97270378568486
 20
7.244563372877793
 30
0.0
 11
13.97270378568486
 21
7.207063378838257
 31
0.0
  0
LINE
  5
1FA
330
1F
100
AcDbEntity
  8
0
  6
Continuous
 62
     7
370
     0
100
AcDbLine
 10
13.79870378673353
 20
7.385063377979578
 30
0.0
 11
13.79870378673353
 21
7.387063378074573
 31
0.0
  0
LINE
  5
1FB
330
1F
100
AcDbEntity
  8
0
  6
Continuous
 62
     7
370
     0
100
AcDbLine
 10
13.79870378673353
 20
7.387063378074573
 30
0.0
 11
13.81167383194246
 21
7.387063378074573
 31
0.0
  0
LINE
  5
1FC
330
1F
100
AcDbEntity
  8
0
  6
Continuous
 62
     7
370
     0
100
AcDbLine
 10
13.81167383194246
 20
7.379063377694593
 30
0.0
 11
13.79870378673353
 21
7.379063377694593
 31
0.0
  0
LINE
  5
1FD
330
1F
100
AcDbEntity
  8
0
  6
Continuous
 62
     7
370
     0
100
AcDbLine
 10
13.79870378673353
 20
7.379063377694593
 30
0.0
 11
13.79870378673353
 21
7.381063377789588
 31
0.0
  0
LINE
  5
1FE
330
1F
100
AcDbEntity
  8
0
  6
Continuous
 62
     7
370
     0
100
AcDbLine
 10
14.13773373961725
 20
7.387063378074573
 30
0.0
 11
14.15070378482618
 21
7.387063378074573
 31
0.0
  0
LINE
  5
1FF
330
1F
100
AcDbEntity
  8
0
  6
Continuous
 62
     7
370
     0
100
AcDbLine
 10
14.15070378482618
 20
7.387063378074573
 30
0.0
 11
14.15070378482618
 21
7.385063377979578
 31
0.0
  0
LINE
  5
200
330
1F
100
AcDbEntity
  8
0
  6
Continuous
 62
     7
370
     0
100
AcDbLine
 10
14.15070378482618
 20
7.379063377694593
 30
0.0
 11
14.13773373961725
 21
7.379063377694593
 31
0.0
  0
LINE
  5
201
330
1F
100
AcDbEntity
  8
0
  6
Continuous
 62
     7
370
     0
100
AcDbLine
 10
14.15070378482618
 20
7.381063377789588
 30
0.0
 11
14.15070378482618
 21
7.379063377694593
 31
0.0
  0
LINE
  5
202
330
1F
100
AcDbEntity
  8
0
  6
Continuous
 62
     7
370
     0
100
AcDbLine
 10
13.97870378596985
 20
7.244563372877793
 30
0.0
 11
13.97870378596985
 21
7.207063378838257
 31
0.0
  0
LINE
  5
203
330
1F
100
AcDbEntity
  8
0
  6
Continuous
 62
     7
370
     0
100
AcDbLine
 10
13.97870378596985
 20
7.207063378838257
 30
0.0
 11
13.97670378587485
 21
7.207063378838257
 31
0.0
  0
LINE
  5
204
330
1F
100
AcDbEntity
  8
0
  6
Continuous
 62
     7
370
     0
100
AcDbLine
 10
13.97070378558987
 20
7.521563382891373
 30
0.0
 11
13.97070378558987
 21
7.559063376930909
 31
0.0
  0
LINE
  5
205
330
1F
100
AcDbEntity
  8
0
  6
Continuous
 62
     7
370
     0
100
AcDbLine
 10
13.97070378558987
 20
7.559063376930909
 30
0.0
 11
13.97270378568486
 21
7.559063376930909
 31
0.0
  0
LINE
  5
206
330
1F
100
AcDbEntity
  8
0
  6
Continuous
 62
     7
370
     0
100
AcDbLine
 10
13.97670378587485
 20
7.559063376930909
 30
0.0
 11
13.97870378596985
 21
7.559063376930909
 31
0.0
  0
LINE
  5
207
330
1F
100
AcDbEntity
  8
0
  6
Continuous
 62
     7
370
     0
100
AcDbLine
 10
13.97870378596985
 20
7.559063376930909
 30
0.0
 11
13.97870378596985
 21
7.521563382891373
 31
0.0
  0
LINE
  5
208
330
1F
100
AcDbEntity
  8
0
  6
Continuous
 62
     7
370
     0
100
AcDbLine
 10
13.97270378568486
 20
7.207063378838257
 30
0.0
 11
13.97070378558987
 21
7.207063378838257
 31
0.0
  0
LINE
  5
209
330
1F
100
AcDbEntity
  8
0
  6
Continuous
 62
     7
370
     0
100
AcDbLine
 10
13.97070378558987
 20
7.207063378838257
 30
0.0
 11
13.97070378558987
 21
7.244563372877793
 31
0.0
  0
LINE
  5
20A
330
1F
100
AcDbEntity
  8
0
  6
Continuous
 62
     7
370
     0
100
AcDbLine
 10
13.97670378587485
 20
7.248078199175553
 30
0.0
 11
13.97670378587485
 21
7.246563376930909
 31
0.0
  0
LINE
  5
20B
330
1F
100
AcDbEntity
  8
0
  6
Continuous
 62
     7
370
     0
100
AcDbLine
 10
13.97270378568486
 20
7.248078199175553
 30
0.0
 11
13.97270378568486
 21
7.246563376930909
 31
0.0
  0
LINE
  5
20C
330
1F
100
AcDbEntity
  8
0
  6
Continuous
 62
     7
370
     0
100
AcDbLine
 10
13.97270378568486
 20
7.518048556593613
 30
0.0
 11
13.97270378568486
 21
7.519563378838257
 31
0.0
  0
LINE
  5
20D
330
1F
100
AcDbEntity
  8
0
  6
Continuous
 62
     7
370
     0
100
AcDbLine
 10
13.97670378587485
 20
7.518048556593613
 30
0.0
 11
13.97670378587485
 21
7.519563378838257
 31
0.0
  0
DIMENSION
  5
2C5
330
1F
100
AcDbEntity
  8
S&C_cotas
  6
Continuous
100
AcDbDimension
  2
*D13
 10
14.24564265805748
 20
7.802278690592361
 30
0.0
 11
14.24564265805748
 21
7.940710539194183
 31
0.0
 70
   160
  1
26 cm / 10”^M
 71
    76
 72
   250
 41
0.0
 42
0.2570000067353249
  3
S&C_cotas
100
AcDbAlignedDimension
 13
14.15070378482618
 23
8.059278697327686
 33
0.0
 14
14.15070378482618
 24
7.802278690592361
 34
0.0
 50
90.0
100
AcDbRotatedDimension
  0
DIMENSION
  5
2D1
330
1F
100
AcDbEntity
  8
S&C_cotas
  6
Continuous
100
AcDbDimension
  2
*D14
 10
13.63395731095823
 20
7.802278690592361
 30
0.0
 11
13.63395731095823
 21
8.074344500159558
 31
0.0
 70
   160
  1
51 cm / 20”
 71
    76
 72
   250
 41
0.0
 42
0.5104026677837954
  3
S&C_cotas
100
AcDbAlignedDimension
 13
13.79870378673353
 23
8.312681358376157
 33
0.0
 14
13.73204373319334
 24
7.802278690592361
 34
0.0
 50
90.0
100
AcDbRotatedDimension
  0
DIMENSION
  5
31D
330
1F
100
AcDbEntity
  8
S&C_cotas
  6
Continuous
100
AcDbDimension
  2
*D19
 10
13.69733011718924
 20
7.802278690592361
 30
0.0
 11
13.69733011718924
 21
8.001328006023838
 31
0.0
 70
   160
  1
42 cm / 17”
 71
    76
 72
   250
 41
0.0
 42
0.416721128137965
  3
S&C_cotas
100
AcDbAlignedDimension
 13
13.79870378673353
 23
8.218999818730326
 33
0.0
 14
13.79870378673353
 24
7.802278690592361
 34
0.0
 50
90.0
100
AcDbRotatedDimension
  0
DIMENSION
  5
38D
330
1F
100
AcDbEntity
  8
S&C_cotas
  6
Continuous
100
AcDbDimension
  2
*D25
 10
13.63516607835361
 20
7.206353348937825
 30
0.0
 11
13.63516607835361
 21
7.37541312188724
 31
0.0
 70
   160
  1
35 cm / 14”
 71
    76
 72
   250
 41
0.0
 42
0.3538030755382762
  3
S&C_cotas
100
AcDbAlignedDimension
 13
13.79870378673353
 23
7.560156424476101
 33
0.0
 14
13.79870378673353
 24
7.206353348937825
 34
0.0
 50
90.0
100
AcDbRotatedDimension
  0
ENDSEC
  0
SECTION
  2
OBJECTS
  0
DICTIONARY
  5
C
330
0
100
AcDbDictionary
281
     1
  3
ACAD_GROUP
350
D
  3
ACAD_IMAGE_VARS
350
227
  3
ACAD_LAYOUT
350
1A
  3
ACAD_MLINESTYLE
350
17
  3
ACAD_PLOTSETTINGS
350
19
  3
ACAD_PLOTSTYLENAME
350
E
  3
ACAD_SCALELIST
350
47
  3
AcDbVariableDictionary
350
3CF
  3
APPDATA
350
226
  3
DWGPROPS
350
3E1
  0
DICTIONARY
  5
D
102
{ACAD_REACTORS
330
C
102
}
330
C
100
AcDbDictionary
281
     1
  0
RASTERVARIABLES
  5
227
102
{ACAD_REACTORS
330
C
102
}
330
C
100
AcDbRasterVariables
 90
        0
 70
     1
 71
     1
 72
     1
  0
DICTIONARY
  5
1A
102
{ACAD_REACTORS
330
C
102
}
330
C
100
AcDbDictionary
281
     1
  3
Layout1
350
1E
  3
Layout2
350
26
  3
Model
350
22
  0
DICTIONARY
  5
17
102
{ACAD_REACTORS
330
C
102
}
330
C
100
AcDbDictionary
281
     1
  3
Standard
350
18
  0
DICTIONARY
  5
19
102
{ACAD_REACTORS
330
C
102
}
330
C
100
AcDbDictionary
281
     1
  0
ACDBDICTIONARYWDFLT
  5
E
102
{ACAD_REACTORS
330
C
102
}
330
C
100
AcDbDictionary
281
     1
  3
Normal
350
F
100
AcDbDictionaryWithDefault
340
F
  0
DICTIONARY
  5
47
102
{ACAD_REACTORS
330
C
102
}
330
C
100
AcDbDictionary
281
     1
  3
A0
350
48
  3
A1
350
49
  3
A2
350
4A
  3
A3
350
4B
  3
A4
350
4C
  3
A5
350
4D
  3
A6
350
4E
  3
A7
350
4F
  3
A8
350
50
  3
A9
350
51
  3
B0
350
52
  3
B1
350
53
  3
B2
350
54
  3
B3
350
55
  3
B4
350
56
  3
B5
350
57
  3
B6
350
58
  3
B7
350
59
  3
B8
350
5A
  3
B9
350
5B
  3
C0
350
5C
  3
C1
350
5D
  3
C2
350
5E
  3
C3
350
5F
  3
C4
350
60
  3
C5
350
61
  3
C6
350
62
  3
C7
350
63
  3
C8
350
64
  3
C9
350
65
  3
D0
350
66
  3
D1
350
67
  3
D2
350
68
  0
DICTIONARY
  5
3CF
102
{ACAD_REACTORS
330
C
102
}
330
C
100
AcDbDictionary
281
     1
  3
CANNOSCALE
350
3E2
  0
DICTIONARY
  5
226
102
{ACAD_REACTORS
330
C
102
}
330
C
100
AcDbDictionary
281
     1
  0
XRECORD
  5
3E1
102
{ACAD_REACTORS
330
C
102
}
330
C
100
AcDbXrecord
280
     1
  1
DWGPROPS COOKIE
  2

  3

  4

  6

  7

  8
Andrea.Obradors
  9

300
=
301
=
302
=
303
=
304
=
305
=
306
=
307
=
308
=
309
=
 40
0.0
 41
2457353.564216157
 42
2457465.48110684
  1

 90
        0
  0
LAYOUT
  5
1E
102
{ACAD_REACTORS
330
1A
102
}
330
1A
100
AcDbPlotSettings
  1

  2
none_device
  4

  6

 40
0.0
 41
0.0
 42
0.0
 43
0.0
 44
0.0
 45
0.0
 46
0.0
 47
0.0
 48
0.0
 49
0.0
140
0.0
141
0.0
142
1.0
143
1.0
 70
   688
 72
     1
 73
     0
 74
     5
  7

 75
    16
147
1.0
148
0.0
149
0.0
100
AcDbLayout
  1
Layout1
 70
     1
 71
     1
 10
0.0
 20
0.0
 11
420.0
 21
297.0
 12
0.0
 22
0.0
 32
0.0
 14
1.000000000000000E+20
 24
1.000000000000000E+20
 34
1.000000000000000E+20
 15
-1.000000000000000E+20
 25
-1.000000000000000E+20
 35
-1.000000000000000E+20
146
0.0
 13
0.0
 23
0.0
 33
0.0
 16
1.0
 26
0.0
 36
0.0
 17
0.0
 27
1.0
 37
0.0
 76
     0
330
1B
  0
LAYOUT
  5
26
102
{ACAD_REACTORS
330
1A
102
}
330
1A
100
AcDbPlotSettings
  1

  2
none_device
  4

  6

 40
0.0
 41
0.0
 42
0.0
 43
0.0
 44
0.0
 45
0.0
 46
0.0
 47
0.0
 48
0.0
 49
0.0
140
0.0
141
0.0
142
1.0
143
1.0
 70
   688
 72
     1
 73
     0
 74
     5
  7

 75
    16
147
1.0
148
0.0
149
0.0
100
AcDbLayout
  1
Layout2
 70
     1
 71
     2
 10
0.0
 20
0.0
 11
0.0
 21
0.0
 12
0.0
 22
0.0
 32
0.0
 14
0.0
 24
0.0
 34
0.0
 15
0.0
 25
0.0
 35
0.0
146
0.0
 13
0.0
 23
0.0
 33
0.0
 16
1.0
 26
0.0
 36
0.0
 17
0.0
 27
1.0
 37
0.0
 76
     0
330
23
  0
LAYOUT
  5
22
102
{ACAD_REACTORS
330
1A
102
}
330
1A
100
AcDbPlotSettings
  1

  2
none_device
  4
Letter_(8.50_x_11.00_Inches)
  6

 40
6.35
 41
6.35
 42
6.35000508
 43
6.35000508
 44
215.9
 45
279.4
 46
0.0
 47
0.0
 48
0.0
 49
0.0
140
0.0
141
0.0
142
1.0
143
1.0
 70
  1712
 72
     1
 73
     0
 74
     0
  7

 75
     0
147
1.0
148
0.0
149
0.0
100
AcDbLayout
  1
Model
 70
     1
 71
     0
 10
0.0
 20
0.0
 11
29.7
 21
21.0
 12
0.0
 22
0.0
 32
0.0
 14
0.0
 24
0.0
 34
0.0
 15
29.7
 25
21.0
 35
0.0
146
0.0
 13
0.0
 23
0.0
 33
0.0
 16
1.0
 26
0.0
 36
0.0
 17
0.0
 27
1.0
 37
0.0
 76
     0
330
1F
331
29
  0
MLINESTYLE
  5
18
102
{ACAD_REACTORS
330
17
102
}
330
17
100
AcDbMlineStyle
  2
Standard
 70
     0
  3

 62
   256
 51
90.0
 52
90.0
 71
     2
 49
0.5
 62
   256
  6
BYLAYER
 49
-0.5
 62
   256
  6
BYLAYER
  0
ACDBPLACEHOLDER
  5
F
102
{ACAD_REACTORS
330
E
102
}
330
E
  0
SCALE
  5
48
102
{ACAD_REACTORS
330
47
102
}
330
47
100
AcDbScale
 70
     0
300
1:1
140
1.0
141
1.0
290
     1
  0
SCALE
  5
49
102
{ACAD_REACTORS
330
47
102
}
330
47
100
AcDbScale
 70
     0
300
1:2
140
1.0
141
2.0
290
     0
  0
SCALE
  5
4A
102
{ACAD_REACTORS
330
47
102
}
330
47
100
AcDbScale
 70
     0
300
1:4
140
1.0
141
4.0
290
     0
  0
SCALE
  5
4B
102
{ACAD_REACTORS
330
47
102
}
330
47
100
AcDbScale
 70
     0
300
1:5
140
1.0
141
5.0
290
     0
  0
SCALE
  5
4C
102
{ACAD_REACTORS
330
47
102
}
330
47
100
AcDbScale
 70
     0
300
1:8
140
1.0
141
8.0
290
     0
  0
SCALE
  5
4D
102
{ACAD_REACTORS
330
47
102
}
330
47
100
AcDbScale
 70
     0
300
1:10
140
1.0
141
10.0
290
     0
  0
SCALE
  5
4E
102
{ACAD_REACTORS
330
47
102
}
330
47
100
AcDbScale
 70
     0
300
1:16
140
1.0
141
16.0
290
     0
  0
SCALE
  5
4F
102
{ACAD_REACTORS
330
47
102
}
330
47
100
AcDbScale
 70
     0
300
1:20
140
1.0
141
20.0
290
     0
  0
SCALE
  5
50
102
{ACAD_REACTORS
330
47
102
}
330
47
100
AcDbScale
 70
     0
300
1:30
140
1.0
141
30.0
290
     0
  0
SCALE
  5
51
102
{ACAD_REACTORS
330
47
102
}
330
47
100
AcDbScale
 70
     0
300
1:40
140
1.0
141
40.0
290
     0
  0
SCALE
  5
52
102
{ACAD_REACTORS
330
47
102
}
330
47
100
AcDbScale
 70
     0
300
1:50
140
1.0
141
50.0
290
     0
  0
SCALE
  5
53
102
{ACAD_REACTORS
330
47
102
}
330
47
100
AcDbScale
 70
     0
300
1:100
140
1.0
141
100.0
290
     0
  0
SCALE
  5
54
102
{ACAD_REACTORS
330
47
102
}
330
47
100
AcDbScale
 70
     0
300
2:1
140
2.0
141
1.0
290
     0
  0
SCALE
  5
55
102
{ACAD_REACTORS
330
47
102
}
330
47
100
AcDbScale
 70
     0
300
4:1
140
4.0
141
1.0
290
     0
  0
SCALE
  5
56
102
{ACAD_REACTORS
330
47
102
}
330
47
100
AcDbScale
 70
     0
300
8:1
140
8.0
141
1.0
290
     0
  0
SCALE
  5
57
102
{ACAD_REACTORS
330
47
102
}
330
47
100
AcDbScale
 70
     0
300
10:1
140
10.0
141
1.0
290
     0
  0
SCALE
  5
58
102
{ACAD_REACTORS
330
47
102
}
330
47
100
AcDbScale
 70
     0
300
100:1
140
100.0
141
1.0
290
     0
  0
SCALE
  5
59
102
{ACAD_REACTORS
330
47
102
}
330
47
100
AcDbScale
 70
     0
300
1/128" = 1'-0"
140
0.0078125
141
12.0
290
     0
  0
SCALE
  5
5A
102
{ACAD_REACTORS
330
47
102
}
330
47
100
AcDbScale
 70
     0
300
1/64" = 1'-0"
140
0.015625
141
12.0
290
     0
  0
SCALE
  5
5B
102
{ACAD_REACTORS
330
47
102
}
330
47
100
AcDbScale
 70
     0
300
1/32" = 1'-0"
140
0.03125
141
12.0
290
     0
  0
SCALE
  5
5C
102
{ACAD_REACTORS
330
47
102
}
330
47
100
AcDbScale
 70
     0
300
1/16" = 1'-0"
140
0.0625
141
12.0
290
     0
  0
SCALE
  5
5D
102
{ACAD_REACTORS
330
47
102
}
330
47
100
AcDbScale
 70
     0
300
3/32" = 1'-0"
140
0.09375
141
12.0
290
     0
  0
SCALE
  5
5E
102
{ACAD_REACTORS
330
47
102
}
330
47
100
AcDbScale
 70
     0
300
1/8" = 1'-0"
140
0.125
141
12.0
290
     0
  0
SCALE
  5
5F
102
{ACAD_REACTORS
330
47
102
}
330
47
100
AcDbScale
 70
     0
300
3/16" = 1'-0"
140
0.1875
141
12.0
290
     0
  0
SCALE
  5
60
102
{ACAD_REACTORS
330
47
102
}
330
47
100
AcDbScale
 70
     0
300
1/4" = 1'-0"
140
0.25
141
12.0
290
     0
  0
SCALE
  5
61
102
{ACAD_REACTORS
330
47
102
}
330
47
100
AcDbScale
 70
     0
300
3/8" = 1'-0"
140
0.375
141
12.0
290
     0
  0
SCALE
  5
62
102
{ACAD_REACTORS
330
47
102
}
330
47
100
AcDbScale
 70
     0
300
1/2" = 1'-0"
140
0.5
141
12.0
290
     0
  0
SCALE
  5
63
102
{ACAD_REACTORS
330
47
102
}
330
47
100
AcDbScale
 70
     0
300
3/4" = 1'-0"
140
0.75
141
12.0
290
     0
  0
SCALE
  5
64
102
{ACAD_REACTORS
330
47
102
}
330
47
100
AcDbScale
 70
     0
300
1" = 1'-0"
140
1.0
141
12.0
290
     0
  0
SCALE
  5
65
102
{ACAD_REACTORS
330
47
102
}
330
47
100
AcDbScale
 70
     0
300
1-1/2" = 1'-0"
140
1.5
141
12.0
290
     0
  0
SCALE
  5
66
102
{ACAD_REACTORS
330
47
102
}
330
47
100
AcDbScale
 70
     0
300
3" = 1'-0"
140
3.0
141
12.0
290
     0
  0
SCALE
  5
67
102
{ACAD_REACTORS
330
47
102
}
330
47
100
AcDbScale
 70
     0
300
6" = 1'-0"
140
6.0
141
12.0
290
     0
  0
SCALE
  5
68
102
{ACAD_REACTORS
330
47
102
}
330
47
100
AcDbScale
 70
     0
300
1'-0" = 1'-0"
140
12.0
141
12.0
290
     0
  0
DICTIONARYVAR
  5
3E2
102
{ACAD_REACTORS
330
3CF
102
}
330
3CF
100
DictionaryVariables
280
     0
  1
1:1
  0
ENDSEC
  0
EOF
